Сегодня идет свободное скачивание без начисления Download

Гарри Поттер: Полное собрание - 8 фильмов / Harry Potter: The Complete - 8 Film Collection (2001 - 2011) BDRip

Ответить на тему
 
Автор
Сообщение

Omen ®

Стаж: 6 лет

Сообщений: 184329

Торрент-статистика

Пост 25-Ноя-2011 18:33

[Цитировать]

Гарри Поттер: Полное собрание - 8 фильмов -Гарри Поттер и Философский камень / Harry Potter and the Sorcerer's Stone (2001) BDRip
«Путешествие в твою мечту»
- Русское название: Гарри Поттер и Философский камень
Оригинальное название: Harry Potter and the Sorcerer's Stone
Год выпуска: 2001
Студия/Страна: Великобритания, США
Жанр: Фэнтези, Детектив, Приключения Семейный-Описание фильма:
Обычный лондонский мальчик Гарри Поттер на 11-м году жизни узнает, что он — осиротевший сын двух могущественных волшебников, и сам обладает магической силой.
В Хогвартской школе чародейства и волшебства Гарри попадает в водоворот невероятных приключений. Он изучает квиддич — спорт высшего пилотажа, играет в захватывающую игру живыми шахматными фигурами, встречается с Темным Волшебником, который хочет его уничтожить.-Режиссер: Крис Коламбус
Актеры: Дэниел Рэдклифф, Эмма Уотсон, Руперт Гринт, Ричард Харрис, Алан Рикман, Мэгги Смит, Робби Колтрейн, Саундерс Триплетс, Фиона Шоу, Гарри Меллинг, Ричард Гриффитс, Дерек Дэмэн, Ян Харт-Продолжительность: 02:32:21
Перевод: Дублированный
Язык субтитров: Русский, Английские
Вид субтитров: Отдельным файлом- -Дата мировой премьеры: 4 ноября 2001, ...
Дата российской премьеры: 21 марта 2002, «Каро-Премьер»
Дата выхода DVD релиза: 23 июня 2009, «Юниверсал Пикчерс Рус», ...
Дата выхода Blu-Ray релиза: 23 декабря 2008, «Юниверсал Пикчерс Рус», ...-Видеокодек: XviD
Битрейт видео: ~1820 Кбит/сек
Размер кадра: 720 x 304
Качество видео: BDRip
Аудиокодек: AC3
Аудио 1: Русский 48,0 КГц; AC3 Dolby Digital; 3/2 (L,C,R,l,r) + LFE ch; 448 Кбит/сек
Аудио 2: Английский 48,0 КГц; AC3 Dolby Digital; 3/2 (L,C,R,l,r) + LFE ch; 448 Кбит/сек-

MediaInfo:

Код:
Общее
Полное имя                       : D:\Garri.Potter.TheComplete 8-Film Collection.2001-2011.BDRip\Garri.Potter.i.Filosofskij.kamen.2001.D.BDRip\Garri.Potter.i.Filosofskij.kamen.2001.D.BDRip.avi
Формат                           : AVI
Формат/Информация                : Audio Video Interleave
Профиль формата                  : OpenDML
Размер файла                     : 2,91 Гбайт
Продолжительность                : 2 ч. 32 м.
Общий поток                      : 2731 Кбит/сек
Видео
Идентификатор                    : 0
Формат                           : MPEG-4 Visual
Профиль формата                  : Advanced [email protected]
Параметр BVOP формата            : 1
Параметр QPel формата            : Нет
Параметр GMC формата             : Без точки перехода
Параметр матрицы формата         : Выборочная
Идентификатор кодека             : XVID
Идентификатор кодека/Подсказка   : XviD
Продолжительность                : 2 ч. 32 м.
Битрейт                          : 1820 Кбит/сек
Ширина                           : 720 пикселей
Высота                           : 304 пикселя
Соотношение сторон               : 2,35:1
Частота кадров                   : 23,976 кадра/сек
Цветовое пространство            : YUV
Субдискретизация насыщенности    : 4:2:0
Битовая глубина                  : 8 бит
Тип развёртки                    : Прогрессивная
Метод сжатия                     : С потерями
Бит/(Пиксели*Кадры)              : 0.347
Размер потока                    : 1,94 Гбайт (67%)
Библиотека кодирования           : XviD 57
Аудио #1
Идентификатор                    : 1
Формат                           : AC-3
Формат/Информация                : Audio Coding 3
Расширение режима                : CM (complete main)
Идентификатор кодека             : 2000
Продолжительность                : 2 ч. 32 м.
Вид битрейта                     : Постоянный
Битрейт                          : 448 Кбит/сек
Каналы                           : 6 каналов
Расположение каналов             : Front: L C R, Side: L R, LFE
Частота                          : 48,0 КГц
Битовая глубина                  : 16 бит
Метод сжатия                     : С потерями
Размер потока                    : 488 Мбайт (16%)
Выравнивание                     : Разделение по промежуткам
Продолжительность промежутка     : 42  мс. (1,00 видеокадр)
Время предзагрузки промежутка    : 500  мс.
Аудио #2
Идентификатор                    : 2
Формат                           : AC-3
Формат/Информация                : Audio Coding 3
Расширение режима                : CM (complete main)
Идентификатор кодека             : 2000
Продолжительность                : 2 ч. 32 м.
Вид битрейта                     : Постоянный
Битрейт                          : 448 Кбит/сек
Каналы                           : 6 каналов
Расположение каналов             : Front: L C R, Side: L R, LFE
Частота                          : 48,0 КГц
Битовая глубина                  : 16 бит
Метод сжатия                     : С потерями
Размер потока                    : 488 Мбайт (16%)
Выравнивание                     : Разделение по промежуткам
Продолжительность промежутка     : 42  мс. (1,00 видеокадр)
Время предзагрузки промежутка    : 500  мс.
-          -- --Гарри Поттер и Тайная Комната / Harry Potter and the Chamber of Secrets (2002) BDRip
«Зло вернулось в Хогвартс»
- Русское название: Гарри Поттер и Тайная Комната
Оригинальное название: Harry Potter and the Chamber of Secrets
Год выпуска: 2002
Студия/Страна: США, Германия, Великобритания
Жанр: Фэнтези, Детектив, Приключения Семейный-Описание фильма:
Гарри Поттер переходит на второй курс Школы чародейства и волшебства Хогвартс. Эльф Добби предупреждает Гарри об опасности, которая поджидает его там, и просит больше не возвращаться в школу.
Юный волшебник не следует совету эльфа и становится свидетелем таинственных событий, разворачивающихся в Хогвартсе. Вскоре Гарри и его друзья узнают о существовании Тайной Комнаты и сталкиваются с новыми приключениями, пытаясь победить темные силы.-Режиссер: Крис Коламбус
Актеры: Дэниэл Рэдклифф, Руперт Гринт, Эмма Уотсон, Ричард Гриффитс, Фиона Шоу, Гарри Меллинг, Тоби Джонс, Джим Нортон, Вероника Клиффорд, Джеймс Фелпс-Продолжительность: 02:40:57
Перевод: Дублированный
Язык субтитров: Русский, Английские
Вид субтитров: Отдельным файлом- -Дата мировой премьеры: 3 ноября 2002, ...
Дата российской премьеры: 26 декабря 2002, «Каро-Премьер»
Дата выхода DVD релиза: 23 июня 2009, «Юниверсал Пикчерс Рус», ...
Дата выхода Blu-Ray релиза: 20 января 2009, «Юниверсал Пикчерс Рус», ...-Видеокодек: XviD
Битрейт видео: ~2127 Кбит/сек
Размер кадра: 720 x 304
Качество видео: BDRip
Аудиокодек: AC3
Аудио 1: Русский 48,0 КГц; AC3 Dolby Digital; 3/2 (L,C,R,l,r) + LFE ch; 448 Кбит/сек | Дубляж
Аудио 2: Русский 48,0 КГц; AC3 Dolby Digital; 3/2 (L,C,R,l,r) + LFE ch; 448 Кбит/сек | П. Гланц, И. Королева (Отдельным файлом)
Аудио 3: Английский 48,0 КГц; AC3 Dolby Digital; 3/2 (L,C,R,l,r) + LFE ch; 448 Кбит/сек (Отдельным файлом)-

MediaInfo:

Код:
Общее
Полное имя                       : D:\Garri.Potter.TheComplete 8-Film Collection.2001-2011.BDRip\Garri.Potter.i.tajnaya.komnata.2002.D.BDRip\Garri.Potter.i.tajnaya.komnata.2002.D.BDRip.avi
Формат                           : AVI
Формат/Информация                : Audio Video Interleave
Профиль формата                  : OpenDML
Размер файла                     : 2,91 Гбайт
Продолжительность                : 2 ч. 40 м.
Общий поток                      : 2585 Кбит/сек
Видео
Идентификатор                    : 0
Формат                           : MPEG-4 Visual
Профиль формата                  : Advanced [email protected]
Параметр BVOP формата            : 1
Параметр QPel формата            : Нет
Параметр GMC формата             : Без точки перехода
Параметр матрицы формата         : Выборочная
Идентификатор кодека             : XVID
Идентификатор кодека/Подсказка   : XviD
Продолжительность                : 2 ч. 40 м.
Битрейт                          : 2127 Кбит/сек
Ширина                           : 720 пикселей
Высота                           : 304 пикселя
Соотношение сторон               : 2,35:1
Частота кадров                   : 23,976 кадра/сек
Цветовое пространство            : YUV
Субдискретизация насыщенности    : 4:2:0
Битовая глубина                  : 8 бит
Тип развёртки                    : Прогрессивная
Метод сжатия                     : С потерями
Бит/(Пиксели*Кадры)              : 0.405
Размер потока                    : 2,39 Гбайт (82%)
Библиотека кодирования           : XviD 57
Аудио
Идентификатор                    : 1
Формат                           : AC-3
Формат/Информация                : Audio Coding 3
Расширение режима                : CM (complete main)
Идентификатор кодека             : 2000
Продолжительность                : 2 ч. 40 м.
Вид битрейта                     : Постоянный
Битрейт                          : 448 Кбит/сек
Каналы                           : 6 каналов
Расположение каналов             : Front: L C R, Side: L R, LFE
Частота                          : 48,0 КГц
Битовая глубина                  : 16 бит
Метод сжатия                     : С потерями
Размер потока                    : 516 Мбайт (17%)
Выравнивание                     : Разделение по промежуткам
Продолжительность промежутка     : 42  мс. (1,00 видеокадр)
Время предзагрузки промежутка    : 500  мс.
-          -- --Гарри Поттер и Узник Азкабана / Harry Potter and the Prisoner of Azkaban (2004) BDRip
«Something wicked this way comes»
- Русское название: Гарри Поттер и Узник Азкабана
Оригинальное название: Harry Potter and the Prisoner of Azkaban
Год выпуска: 2004
Студия/Страна: США, Великобритания
Жанр: Фэнтези, Детектив, Приключения Семейный
Описание фильма:
В третьей части экранизации бестселлера о юном волшебнике, полюбившиеся всем герои — Гарри Поттер, Рон и Гермиона — возвращаются уже на третий курс школы чародейства и волшебства «Хогвартс». На этот раз они должны раскрыть тайну узника, сбежавшего из зловещей тюрьмы Азкабан, чье пребывание на воле создает для Гарри смертельную опасность…-Режиссер: Альфонсо Куарон
Актеры: Дэниэл Рэдклифф, Эмма Уотсон, Руперт Гринт, Алан Рикман, Ричард Гриффитс, Пэм Феррис, Фиона Шоу, Гарри Меллинг, Адриан Роулинз, Джеральдин Соммервиль, Ли Инглби, Ленни Генри, Джимми Гарднер-Продолжительность: 02:21:42
Перевод: Дублированный
Язык субтитров: Русский, Английские
Вид субтитров: Отдельным файлом- -Дата мировой премьеры: 31 мая 2004, ...
Дата российской премьеры: 3 июня 2004, «Каро-Премьер»
Дата выхода DVD релиза: 23 июня 2009, «Юниверсал Пикчерс Рус», ...
Дата выхода Blu-Ray релиза: 23 декабря 2008, «Юниверсал Пикчерс Рус», ...-Видеокодек: XviD
Битрейт видео: ~2026 Кбит/сек
Размер кадра: 720 х 304
Качество видео: BDRip
Аудиокодек: AC3
Аудио 1: Русский 48,0 КГц; AC3 Dolby Digital; 3/2 (L,C,R,l,r) + LFE ch; 448 Кбит/сек
Аудио 2: Английский 48,0 КГц; AC3 Dolby Digital; 3/2 (L,C,R,l,r) + LFE ch; 448 Кбит/сек-

MediaInfo:

Код:
Общее
Полное имя                       : D:\Garri.Potter.TheComplete 8-Film Collection.2001-2011.BDRip\Garri.Potter.i.uznik.Azkabana.2004.D.BDRip\Garri.Potter.i.uznik.Azkabana.2004.D.BDRip.avi
Формат                           : AVI
Формат/Информация                : Audio Video Interleave
Профиль формата                  : OpenDML
Размер файла                     : 2,91 Гбайт
Продолжительность                : 2 ч. 21 м.
Общий поток                      : 2938 Кбит/сек
Видео
Идентификатор                    : 0
Формат                           : MPEG-4 Visual
Профиль формата                  : Advanced [email protected]
Параметр BVOP формата            : 1
Параметр QPel формата            : Нет
Параметр GMC формата             : Без точки перехода
Параметр матрицы формата         : Выборочная
Идентификатор кодека             : XVID
Идентификатор кодека/Подсказка   : XviD
Продолжительность                : 2 ч. 21 м.
Битрейт                          : 2026 Кбит/сек
Ширина                           : 720 пикселей
Высота                           : 304 пикселя
Соотношение сторон               : 2,35:1
Частота кадров                   : 23,976 кадра/сек
Цветовое пространство            : YUV
Субдискретизация насыщенности    : 4:2:0
Битовая глубина                  : 8 бит
Тип развёртки                    : Прогрессивная
Метод сжатия                     : С потерями
Бит/(Пиксели*Кадры)              : 0.386
Размер потока                    : 2,01 Гбайт (69%)
Библиотека кодирования           : XviD 57
Аудио #1
Идентификатор                    : 1
Формат                           : AC-3
Формат/Информация                : Audio Coding 3
Расширение режима                : CM (complete main)
Идентификатор кодека             : 2000
Продолжительность                : 2 ч. 21 м.
Вид битрейта                     : Постоянный
Битрейт                          : 448 Кбит/сек
Каналы                           : 6 каналов
Расположение каналов             : Front: L C R, Side: L R, LFE
Частота                          : 48,0 КГц
Битовая глубина                  : 16 бит
Метод сжатия                     : С потерями
Размер потока                    : 454 Мбайт (15%)
Выравнивание                     : Разделение по промежуткам
Продолжительность промежутка     : 42  мс. (1,00 видеокадр)
Время предзагрузки промежутка    : 500  мс.
Аудио #2
Идентификатор                    : 2
Формат                           : AC-3
Формат/Информация                : Audio Coding 3
Расширение режима                : CM (complete main)
Идентификатор кодека             : 2000
Продолжительность                : 2 ч. 21 м.
Вид битрейта                     : Постоянный
Битрейт                          : 448 Кбит/сек
Каналы                           : 6 каналов
Расположение каналов             : Front: L C R, Side: L R, LFE
Частота                          : 48,0 КГц
Битовая глубина                  : 16 бит
Метод сжатия                     : С потерями
Размер потока                    : 454 Мбайт (15%)
Выравнивание                     : Разделение по промежуткам
Продолжительность промежутка     : 42  мс. (1,00 видеокадр)
Время предзагрузки промежутка    : 500  мс.
-
         --
--Гарри Поттер и Кубок огня / Harry Potter and the Goblet of Fire (2005) BDRip
«Впереди темные и страшные времена»
- Русское название: Гарри Поттер и Кубок огня
Оригинальное название: Harry Potter and the Goblet of Fire
Год выпуска: 2005
Студия/Страна: США, Великобритания
Жанр: Фэнтези, Детектив, Приключения Семейный-Описание фильма:
Гарри Поттер, Рон и Гермиона возвращаются на четвертый курс школы чародейства и волшебства «Хогвартс». При таинственных обстоятельствах Гарри отобран в число участников опасного соревнования — Турнира Трех Волшебников, однако проблема в том, что все его соперники — намного старше и сильнее.
К тому же, знаки указывают на возвращение Лорда Волдеморта. Вскоре Гарри предстоит побороться не только за победу в соревновании, но и, прежде всего, за свою жизнь…
Режиссер: Майк Ньюэлл
Актеры: Дэниэл Рэдклифф, Эмма Уотсон, Руперт Гринт, Алан Рикман, Эрик Сайкес, Тимоти Сполл, Дэвид Теннант, Марк Уильямс, Джеймс Фелпс, Оливер Фелпс-Продолжительность: 02:37:05
Перевод: Дублированный
Язык субтитров: Русские, Английские SDH
Вид субтитров: Вшитые, отключаемые- -Дата мировой премьеры: 31 мая 2004, ...
Дата российской премьеры: 3 июня 2004, «Каро-Премьер»
Дата выхода DVD релиза: 23 июня 2009, «Юниверсал Пикчерс Рус», ...
Дата выхода Blu-Ray релиза: 23 декабря 2008, «Юниверсал Пикчерс Рус», ...-Видеокодек: XviD
Битрейт видео: ~2190 Кбит/сек
Размер кадра: 720 x 304
Качество видео: BDRip
Аудиокодек: AC3
Аудио 1: Русский 48,0 КГц; AC3 Dolby Digital; 3/2 (L,C,R,l,r) + LFE ch; 448 Кбит/сек
Аудио 2: Английский 48,0 КГц; AC3 Dolby Digital; 3/2 (L,C,R,l,r) + LFE ch; 448 Кбит/сек (Отдельным файлом)-

MediaInfo:

Код:
Общее
Полное имя                       : D:\Garri.Potter.TheComplete 8-Film Collection.2001-2011.BDRip\Garri.Potter.i.kubok.ognya.2005.D.BDRip\Garri.Potter.i.kubok.ognya.2005.D.BDRip.avi
Формат                           : AVI
Формат/Информация                : Audio Video Interleave
Профиль формата                  : OpenDML
Размер файла                     : 2,91 Гбайт
Продолжительность                : 2 ч. 37 м.
Общий поток                      : 2649 Кбит/сек
Видео
Идентификатор                    : 0
Формат                           : MPEG-4 Visual
Профиль формата                  : Advanced [email protected]
Параметр BVOP формата            : 1
Параметр QPel формата            : Нет
Параметр GMC формата             : Без точки перехода
Параметр матрицы формата         : Выборочная
Идентификатор кодека             : XVID
Идентификатор кодека/Подсказка   : XviD
Продолжительность                : 2 ч. 37 м.
Битрейт                          : 2190 Кбит/сек
Ширина                           : 720 пикселей
Высота                           : 304 пикселя
Соотношение сторон               : 2,35:1
Частота кадров                   : 23,976 кадра/сек
Цветовое пространство            : YUV
Субдискретизация насыщенности    : 4:2:0
Битовая глубина                  : 8 бит
Тип развёртки                    : Прогрессивная
Метод сжатия                     : С потерями
Бит/(Пиксели*Кадры)              : 0.417
Размер потока                    : 2,40 Гбайт (83%)
Библиотека кодирования           : XviD 57
Аудио
Идентификатор                    : 1
Формат                           : AC-3
Формат/Информация                : Audio Coding 3
Расширение режима                : CM (complete main)
Идентификатор кодека             : 2000
Продолжительность                : 2 ч. 37 м.
Вид битрейта                     : Постоянный
Битрейт                          : 448 Кбит/сек
Каналы                           : 6 каналов
Расположение каналов             : Front: L C R, Side: L R, LFE
Частота                          : 48,0 КГц
Битовая глубина                  : 16 бит
Метод сжатия                     : С потерями
Размер потока                    : 503 Мбайт (17%)
Выравнивание                     : Разделение по промежуткам
Продолжительность промежутка     : 42  мс. (1,00 видеокадр)
Время предзагрузки промежутка    : 500  мс.
-          -- --Гарри Поттер и Орден Феникса / Harry Potter and the Order of the Phoenix (2007) BDRip
«Выжить суждено только одному.»
- Русское название: Гарри Поттер и Орден Феникса
Оригинальное название: Harry Potter and the Order of the Phoenix
Год выпуска: 2007
Студия/Страна: США, Великобритания
Жанр: Фэнтези, Детектив, Приключения Семейный-Описание фильма:
Гарри проводит свой пятый год обучения в школе Хогвартс и обнаруживает, что многие из членов волшебного сообщества отрицают сам факт недавнего состязания юного волшебника с воплощением вселенского зла Волдемортом, делая вид, что не имеют ни малейшего представления о том, что злодей вернулся.
Опасаясь, что почтенный глава Хогвартса Альбус Дамблдор распространяет лживые слухи о возвращении Волдеморта, стремясь подорвать авторитет Министра Магии Корнелиуса Фаджа и в дальнейшем занять его место, Корнелиус назначает нового профессора защиты от темных искусств, который должен будет пристально следить за Дамблдором и студентами Хогвартса.
Но одобренный министерством курс лекций по защитной магии профессора Долорес Амбридж оказывается на практике абсолютно бесполезным — юные волшебники просто неспособны противостоять действию темных сил, угрожающих им и всему волшебному сообществу. И тогда, по настоянию своих друзей, Гермионы и Рона, Гарри берет инициативу в свои руки.
Тайно встречаясь с небольшой группой студентов, называющей себя Отрядом Дамблдора, Гарри обучает их самозащите от темных сил, готовя отважных волшебников к необычной схватке, которая ждет их впереди.-Режиссер: Дэвид Йэтс
Актеры: Дэниэл Рэдклифф, Эмма Уотсон, Руперт Гринт, Алан Рикман, Джейсон Бойд, Ричард Маклин, Гарри Меллинг, Кэтрин Хантер, Майлз Джапп, Фиона Шоу, Ричард Гриффитс-Продолжительность: 02:18:14
Перевод: Дублированный
Язык субтитров: Русские, Английские SDH
Вид субтитров: Отдельным файлом- -Дата мировой премьеры: 28 июня 2007, ...
Дата российской премьеры: 19 июля 2007, «Каро-Премьер»
Дата выхода DVD релиза: 23 июня 2009, «Юниверсал Пикчерс Рус», ...
Дата выхода Blu-Ray релиза: 23 декабря 2008, «Юниверсал Пикчерс Рус», ...-Видеокодек: XviD
Битрейт видео: ~2099 Кбит/сек
Размер кадра: 720 х 304
Качество видео: BDRip
Аудиокодек: AC3
Аудио 1: Русский 48,0 КГц; AC3 Dolby Digital; 3/2 (L,C,R,l,r) + LFE ch; 448 Кбит/сек
Аудио 2: Английский 48,0 КГц; AC3 Dolby Digital; 3/2 (L,C,R,l,r) + LFE ch; 448 Кбит/сек-

MediaInfo:

Код:
Общее
Полное имя                       : D:\Garri.Potter.TheComplete 8-Film Collection.2001-2011.BDRip\Garri.Potter.i.orden.Feniksa.2007.D.BDRip\Garri.Potter.i.orden.Feniksa.2007.D.BDRip.avi
Формат                           : AVI
Формат/Информация                : Audio Video Interleave
Профиль формата                  : OpenDML
Размер файла                     : 2,91 Гбайт
Продолжительность                : 2 ч. 18 м.
Общий поток                      : 3011 Кбит/сек
Видео
Идентификатор                    : 0
Формат                           : MPEG-4 Visual
Профиль формата                  : Advanced [email protected]
Параметр BVOP формата            : 1
Параметр QPel формата            : Нет
Параметр GMC формата             : Без точки перехода
Параметр матрицы формата         : Выборочная
Идентификатор кодека             : XVID
Идентификатор кодека/Подсказка   : XviD
Продолжительность                : 2 ч. 18 м.
Битрейт                          : 2099 Кбит/сек
Ширина                           : 720 пикселей
Высота                           : 304 пикселя
Соотношение сторон               : 2,35:1
Частота кадров                   : 23,976 кадра/сек
Цветовое пространство            : YUV
Субдискретизация насыщенности    : 4:2:0
Битовая глубина                  : 8 бит
Тип развёртки                    : Прогрессивная
Метод сжатия                     : С потерями
Бит/(Пиксели*Кадры)              : 0.400
Размер потока                    : 2,03 Гбайт (70%)
Библиотека кодирования           : XviD 57
Аудио #1
Идентификатор                    : 1
Формат                           : AC-3
Формат/Информация                : Audio Coding 3
Расширение режима                : CM (complete main)
Идентификатор кодека             : 2000
Продолжительность                : 2 ч. 18 м.
Вид битрейта                     : Постоянный
Битрейт                          : 448 Кбит/сек
Каналы                           : 6 каналов
Расположение каналов             : Front: L C R, Side: L R, LFE
Частота                          : 48,0 КГц
Битовая глубина                  : 16 бит
Метод сжатия                     : С потерями
Размер потока                    : 443 Мбайт (15%)
Выравнивание                     : Разделение по промежуткам
Продолжительность промежутка     : 42  мс. (1,00 видеокадр)
Время предзагрузки промежутка    : 500  мс.
Аудио #2
Идентификатор                    : 2
Формат                           : AC-3
Формат/Информация                : Audio Coding 3
Расширение режима                : CM (complete main)
Идентификатор кодека             : 2000
Продолжительность                : 2 ч. 18 м.
Вид битрейта                     : Постоянный
Битрейт                          : 448 Кбит/сек
Каналы                           : 6 каналов
Расположение каналов             : Front: L C R, Side: L R, LFE
Частота                          : 48,0 КГц
Битовая глубина                  : 16 бит
Метод сжатия                     : С потерями
Размер потока                    : 443 Мбайт (15%)
Выравнивание                     : Разделение по промежуткам
Продолжительность промежутка     : 42  мс. (1,00 видеокадр)
Время предзагрузки промежутка    : 500  мс.
-          -- --Гарри Поттер и Принц-полукровка / Harry Potter and the Half-Blood Prince (2009) BDRip
«Секрет темных сил раскрыт»
- Русское название: Гарри Поттер и Принц-полукровка
Оригинальное название: Harry Potter and the Half-Blood Prince
Год выпуска: 2009
Студия/Страна: США, Великобритания
Жанр: Фэнтези, Детектив, Приключения Семейный-Описание фильма:
Теперь не только мир волшебников, но и мир маглов ощущает на себе все возрастающую силу Волан-де-Морта, а Хогвартс уже никак не назовешь надежным убежищем, каким он был раньше. Гарри подозревает, что в самом замке затаилась некая опасность, но Дамблдор больше сосредоточен на том, чтобы подготовить его к финальной схватке, которая, как он знает, уже не за горами. Вместе они пытаются разгадать секрет бессмертия Волан-де-Морта, а для этого Дамблдор приглашает на должность преподавателя по зельеварению своего старинного друга и коллегу — профессора Горация Слизнорта, который обожает устраивать вечеринки для избранных и гордится своими обширными связями в высших кругах. Но этот бонвиван и не подозревает, что как раз от него Дамблдор надеется заполучить самую важную информацию о крестражах.
Тем временем учеников атакуют самые разные враги, а подростковые эмоции хлещут через край. Гарри начинает понимать, что становится все более неравнодушным к Джинни, однако, и Дин Томас тоже. А Лаванда Браун вбила себе в голову, что Рон — тот самый единственный, которого она ждет, да вот только не учла волшебного эффекта шоколадных конфет Ромильды Вейн! Ну и, наконец, Гермиона пылает жгучей ревностью, но старается не показывать своих чувств. Пока романтические отношения расцветают, лишь один ученик остается в стороне. Он твердо намерен оставить свою метку, темную метку. Любовь витает в воздухе, но впереди ждет беда, и Хогвартс, возможно, уже никогда не будет прежним.-Режиссер: Дэвид Йэтс
Актеры: Дэниэл Рэдклифф, Руперт Гринт, Эмма Уотсон, Хелена Бонем Картер, Дэвид Тьюлис, Джим Броудбент, Эларика Галлахер, Робби Колтрейн, Майкл Гэмбон, Мэгги Смит, Алан Рикман, Бонни Райт-Продолжительность: 02:33:30
Перевод: Дублированный
Язык субтитров: Русский, Английские
Вид субтитров: Отдельным файлом- -Дата мировой премьеры: 6 июля 2009, ...
Дата российской премьеры: 16 июля 2009, «Каро-Премьер»
Дата выхода DVD релиза: 17 ноября 2009, «Юниверсал Пикчерс Рус», ...
Дата выхода Blu-Ray релиза: 17 ноября 2009, «Юниверсал Пикчерс Рус», ...-Видеокодек: XviD
Битрейт видео: ~1922 Кбит/сек
Размер кадра: 720 х 304
Качество видео: BDRip
Аудиокодек: AC3
Аудио 1: Русский 48,0 КГц; AC3 Dolby Digital; 3/2 (L,C,R,l,r) + LFE ch; 448 Кбит/сек
Аудио 2: Английский 48,0 КГц; AC3 Dolby Digital; 3/2 (L,C,R,l,r) + LFE ch; 448 Кбит/сек-

MediaInfo:

Код:
Общее
Полное имя                       : D:\Garri.Potter.TheComplete 8-Film Collection.2001-2011.BDRip\Garry.Potter.I.Princ-Polukrovka.2009.D.BDRip\Garry.Potter.I.Princ-Polukrovka.2009.D.BDRip.avi
Формат                           : AVI
Формат/Информация                : Audio Video Interleave
Профиль формата                  : OpenDML
Размер файла                     : 2,90 Гбайт
Продолжительность                : 2 ч. 33 м.
Общий поток                      : 2706 Кбит/сек
Видео
Идентификатор                    : 0
Формат                           : MPEG-4 Visual
Профиль формата                  : Advanced [email protected]
Параметр BVOP формата            : 1
Параметр QPel формата            : Нет
Параметр GMC формата             : Без точки перехода
Параметр матрицы формата         : Выборочная
Идентификатор кодека             : XVID
Идентификатор кодека/Подсказка   : XviD
Продолжительность                : 2 ч. 33 м.
Битрейт                          : 1922 Кбит/сек
Ширина                           : 720 пикселей
Высота                           : 304 пикселя
Соотношение сторон               : 2,35:1
Частота кадров                   : 23,976 кадра/сек
Цветовое пространство            : YUV
Субдискретизация насыщенности    : 4:2:0
Битовая глубина                  : 8 бит
Тип развёртки                    : Прогрессивная
Метод сжатия                     : С потерями
Бит/(Пиксели*Кадры)              : 0.366
Размер потока                    : 2,06 Гбайт (71%)
Библиотека кодирования           : XviD 1.2.1 (UTC 2008-12-04)
Аудио #1
Идентификатор                    : 1
Формат                           : AC-3
Формат/Информация                : Audio Coding 3
Расширение режима                : CM (complete main)
Идентификатор кодека             : 2000
Продолжительность                : 2 ч. 33 м.
Вид битрейта                     : Постоянный
Битрейт                          : 384 Кбит/сек
Каналы                           : 6 каналов
Расположение каналов             : Front: L C R, Side: L R, LFE
Частота                          : 48,0 КГц
Битовая глубина                  : 16 бит
Метод сжатия                     : С потерями
Размер потока                    : 422 Мбайт (14%)
Выравнивание                     : Разделение по промежуткам
Продолжительность промежутка     : 42  мс. (1,00 видеокадр)
Время предзагрузки промежутка    : 500  мс.
Аудио #2
Идентификатор                    : 2
Формат                           : AC-3
Формат/Информация                : Audio Coding 3
Расширение режима                : CM (complete main)
Идентификатор кодека             : 2000
Продолжительность                : 2 ч. 33 м.
Вид битрейта                     : Постоянный
Битрейт                          : 384 Кбит/сек
Каналы                           : 6 каналов
Расположение каналов             : Front: L C R, Side: L R, LFE
Частота                          : 48,0 КГц
Битовая глубина                  : 16 бит
Метод сжатия                     : С потерями
Размер потока                    : 422 Мбайт (14%)
Выравнивание                     : Разделение по промежуткам
Продолжительность промежутка     : 42  мс. (1,00 видеокадр)
Время предзагрузки промежутка    : 500  мс.
-          -- --Гарри Поттер и Дары смерти Часть 1 / Harry Potter and the Deathly Hallows Part 1 (2010) BDRip
«Опасность повсюду»
- Русское название: Гарри Поттер и Дары смерти Часть 1
Оригинальное название: Harry Potter and the Deathly Hallows Part 1
Год выпуска: 2010
Студия/Страна: США, Великобритания
Жанр: Фэнтези, Детектив, Приключения Семейный
Описание фильма:
Гарри Поттера ждёт самое страшное испытание в жизни — смертельная схватка с Волан-де-Мортом. Ждать помощи не от кого — Гарри одинок, как никогда… Друзья и враги Гарри предстают в совершенно неожиданном свете. Граница между Добром и Злом становится всё призрачнее…-Режиссер: Дэвид Йэтс
Актеры: Дэниэл Рэдклифф, Эмма Уотсон, Том Фелтон, Руперт Гринт, Хелена Бонем Картер, Рэйф Файнс, Клеманс Поэзи, Бонни Райт, Рис Иванс, Алан Рикман-Продолжительность: 02:26:05
Перевод: Дублированный
Язык субтитров: Русские R5, Русские (форсированные), Английские SDH
Вид субтитров: Отдельным файлом- -Дата мировой премьеры: 11 ноября 2010, ...
Дата российской премьеры: 19 ноября 2010, «Каро-Премьер»
Дата выхода DVD релиза: 14 апреля 2011, «CP-Digital», ...
Дата выхода Blu-Ray релиза: 12 мая 2011, «CP-Digital», ...-Видеокодек: XviD
Битрейт видео: ~2065 Кбит/сек
Размер кадра: 720 х 304
Качество видео: BDRip
Аудиокодек: AC3
Аудио 1: Русский 48,0 КГц; AC3 Dolby Digital; 3/2 (L,C,R,l,r) + LFE ch; 448 Кбит/сек
Аудио 2: Английский 48,0 КГц; AC3 Dolby Digital; 3/2 (L,C,R,l,r) + LFE ch; 448 Кбит/сек-

MediaInfo:

Код:
Общее
Полное имя                       : D:\Garri.Potter.TheComplete 8-Film Collection.2001-2011.BDRip\Garri.Potter.i.Dary.smerti.Chast.1.2010.D.BDRip\Garri.Potter.i.Dary.smerti.Chast.1.2010.D.BDRip.avi
Формат                           : AVI
Формат/Информация                : Audio Video Interleave
Профиль формата                  : OpenDML
Размер файла                     : 2,91 Гбайт
Продолжительность                : 2 ч. 26 м.
Общий поток                      : 2849 Кбит/сек
Видео
Идентификатор                    : 0
Формат                           : MPEG-4 Visual
Профиль формата                  : Advanced [email protected]
Параметр BVOP формата            : 1
Параметр QPel формата            : Нет
Параметр GMC формата             : Без точки перехода
Параметр матрицы формата         : Выборочная
Режим смешивания                 : Сжатый битовый поток
Идентификатор кодека             : XVID
Идентификатор кодека/Подсказка   : XviD
Продолжительность                : 2 ч. 26 м.
Битрейт                          : 2065 Кбит/сек
Ширина                           : 720 пикселей
Высота                           : 304 пикселя
Соотношение сторон               : 2,35:1
Частота кадров                   : 23,976 кадра/сек
Цветовое пространство            : YUV
Субдискретизация насыщенности    : 4:2:0
Битовая глубина                  : 8 бит
Тип развёртки                    : Прогрессивная
Метод сжатия                     : С потерями
Бит/(Пиксели*Кадры)              : 0.394
Размер потока                    : 2,11 Гбайт (72%)
Библиотека кодирования           : XviD 62
Аудио #1
Идентификатор                    : 1
Формат                           : AC-3
Формат/Информация                : Audio Coding 3
Расширение режима                : CM (complete main)
Идентификатор кодека             : 2000
Продолжительность                : 2 ч. 26 м.
Вид битрейта                     : Постоянный
Битрейт                          : 384 Кбит/сек
Каналы                           : 6 каналов
Расположение каналов             : Front: L C R, Side: L R, LFE
Частота                          : 48,0 КГц
Битовая глубина                  : 16 бит
Метод сжатия                     : С потерями
Размер потока                    : 401 Мбайт (13%)
Выравнивание                     : Разделение по промежуткам
Продолжительность промежутка     : 42  мс. (1,00 видеокадр)
Время предзагрузки промежутка    : 500  мс.
Аудио #2
Идентификатор                    : 2
Формат                           : AC-3
Формат/Информация                : Audio Coding 3
Расширение режима                : CM (complete main)
Идентификатор кодека             : 2000
Продолжительность                : 2 ч. 26 м.
Вид битрейта                     : Постоянный
Битрейт                          : 384 Кбит/сек
Каналы                           : 6 каналов
Расположение каналов             : Front: L C R, Side: L R, LFE
Частота                          : 48,0 КГц
Битовая глубина                  : 16 бит
Метод сжатия                     : С потерями
Размер потока                    : 401 Мбайт (13%)
Выравнивание                     : Разделение по промежуткам
Продолжительность промежутка     : 42  мс. (1,00 видеокадр)
Время предзагрузки промежутка    : 500  мс.
-          -- --Гарри Поттер и Дары смерти: Часть II / Harry Potter and the Deathly Hallows: Part 2 (2011) BDRip
«Все закончится»
- Русское название: Гарри Поттер и Дары смерти: Часть II
Оригинальное название: Harry Potter and the Deathly Hallows: Part 2
Год выпуска: 2011
Студия/Страна: США, Великобритания
Жанр: Фэнтези, Детектив, Приключения Семейный-Описание фильма:
В грандиозной последней главе битва между добрыми и злыми силами мира волшебников перерастает во всеобщую войну. Ставки ещё никогда не были так высоки, а поиск убежища — столь сложен. И быть может именно Гарри Поттеру придется пожертвовать всем в финальном сражении с Волан-де-Мортом. Способен ли наш герой спасти мир? И всё закончится здесь.-Режиссер: Дэвид Йэтс
Актеры: Дэниэл Рэдклифф, Руперт Гринт, Эмма Уотсон, Рэйф Файнс, Алан Рикман, Хелена Бонем Картер, Том Фелтон, Гари Олдман, Майкл Гэмбон, Мэгги Смит и др.-Продолжительность: 02:10:27
Перевод: Дублированный
Язык субтитров: Русские (с BD CEE), Русские (форсированные) с BD CEE, Русские (voronine), Английские, Английские (SDH)
Вид субтитров: Отдельным файлом- -Дата мировой премьеры: 7 июля 2011, ...
Дата российской премьеры: 13 июля 2011, «Каро-Премьер»
Дата выхода DVD релиза: 13 июля 2011, «Каро-Премьер»
Дата выхода Blu-Ray релиза: 13 июля 2011, «Каро-Премьер»-Видеокодек: XviD
Битрейт видео: ~1936 Кбит/сек
Размер кадра: 720 х 304
Качество видео: BDRip
Аудиокодек: AC3
Аудио 1: Русский 48,0 КГц; AC3 Dolby Digital; 3/2 (L,C,R,l,r) + LFE ch; 448 Кбит/сек
Аудио 2: Английский 48,0 КГц; AC3 Dolby Digital; 3/2 (L,C,R,l,r) + LFE ch; 448 Кбит/сек (Отдельным файлом)--

MediaInfo:

[code]Общее
Полное имя : D:\Garri.Potter.TheComplete 8-Film Collection.2001-2011.BDRip\Garri.Potter.i.Dary.smerti.Chast.II.2011.D.BDRip\Garri.Potter.i.Dary.smerti.Chast.II.2011.D.BDRip.avi
Формат : AVI
Формат/Информация : Audio Video Interleave
Профиль формата : OpenDML
Размер файла : 2,18 Гбайт
Продолжительность : 2 ч. 10 м.
Общий поток : 2396 Кбит/сек
Видео
Идентификатор : 0
Формат : MPEG-4 Visual
Профиль формата : Advanced [email protected]
Параметр BVOP формата : 1
Параметр QPel формата : Нет
Параметр GMC формата : Без точки перехода
Параметр матрицы формата : Выборочная
Идентификатор кодека : XVID
Идентификатор кодека/Подсказка : XviD
Продолжительность : 2 ч. 10 м.
Битрейт : 1936 Кбит/сек
Ширина : 720 пикселей
Высота : 304 пикселя
Соотношение сторон : 2,35:1
Ч
Вне форума [Профиль] [ЛС]

Dracula

Стаж: 5 лет 1 месяц

Сообщений: 12209

Торрент-статистика

Пост 25-Ноя-2011 19:53 (спустя 1 час 19 минут)

Топик был перенесен из форума Антология (DVD, HD Video) в форум Антология зарубежного кино

Delia
 
Похожие темы
Форум Тема Автор Торрент Отв. Посл. сообщение
./templates/default/images/folder_dl.gif Таблетки Гарри Поттер и Дары Смерти. Часть 2 / Harry Potter and the Deathly Hallows Part II *RELOADED* sassad
0 | 1

0 | 1724

0

2011-07-11 18:26
sassad Последнее
Показать сообщения:    
Ответить на тему

Текущее время: Сегодня 18:52

Часовой пояс: GMT + 3



Вы не можете начинать темы
Вы не можете отвечать на сообщения
Вы не можете редактировать свои сообщения
Вы не можете удалять свои сообщения
Вы не можете голосовать в опросах
Вы не можете прикреплять файлы к сообщениям
Вы не можете скачивать файлы