Today is a free download without charge Download

Школа снеговиков (Александр Маркелов) [2009, короткометражный анимационный фильм, WEBRip]

Reply to topic
 
Author
Message

Omen ®

Longevity: 7 years 11 months

Posts: 181087

Торрент-статистика

Post 17-Jan-2014 14:00

[Quote]

Школа снеговиков Год выпуска: 2009
Страна: Россия Союзмультфильм
Жанр: короткометражный анимационный фильм
Продолжительность: 00:12:41
Перевод: не требуется
Субтитры: отсутствуют- Режиссёр: Александр Маркелов- Описание: «Школа снеговиков» – замечательный добрый мультфильм, созданный по одноименной повести известного детского писателя Андрея Усачева. Мы приглашаем больших и маленьких зрителей посмотреть мультик онлайн и узнать, что это за учебное заведение.
«На самом крайнем Севере, чудес и тайн полна, среди лесов затеряна, деревня есть одна…», – так начинается рассказ об удивительном местечке, деревне под названием Дедморозовка. Здесь живут и учатся снеговики под руководством самого Дедушки Мороза – доброго, мудрого и справедливого наставника. Несмотря на то, что в классе всего четыре ученика, учиться здесь весело и интересно. А появилась эта школа, когда Морозу захотелось увидеть внуков – тогда и решил он слепить снеговиков, чтобы научить молодое поколение всему, что знает сам, и передать опыт новогодних дел. Маленькие снеговички сразу же полюбили дедушку и с удовольствием начали учиться в школе. Жизнь в Дедморозовке заиграла новыми яркими красками!-- Качество: WEBRip
Формат: AVI
Видео кодек: XviD
Аудио кодек: MP3
Видео: 640x480 , (1.33:1), 25 fps, XviD build 65 ~2062 kbps avg, 0.27 bit/pixel
Аудио: 48 kHz, MPEG Layer 3, 2 ch, ~128.00 kbps avg

MediaInfo

Общее
Полное имя : C:\Школа снеговиков\Школа снеговиков.2009.WEBRip.avi
Формат : AVI
Формат/Информация : Audio Video Interleave
Размер файла : 200 Мбайт
Продолжительность : 12 м.
Общий поток : 2201 Кбит/сек
Программа кодирования : VirtualDubMod 1.5.10.3 (build 2550/release)
Библиотека кодирования : VirtualDubMod build 2550/release
Видео
Идентификатор : 0
Формат : MPEG-4 Visual
Профиль формата : Advanced [email protected]
Параметр BVOP формата : 2
Параметр QPel формата : Нет
Параметр GMC формата : Без точки перехода
Параметр матрицы формата : Выборочная
Идентификатор кодека : XVID
Идентификатор кодека/Подсказка : XviD
Продолжительность : 12 м.
Битрейт : 2063 Кбит/сек
Ширина : 640 пикселей
Высота : 480 пикселей
Соотношение сторон : 4:3
Частота кадров : 25,000 кадров/сек
Цветовое пространство : YUV
Субдискретизация насыщенности : 4:2:0
Битовая глубина : 8 бит
Тип развёртки : Прогрессивная
Метод сжатия : С потерями
Бит/(Пиксели*Кадры) : 0.269
Размер потока : 187 Мбайт (94%)
Библиотека кодирования : XviD 65
Аудио
Идентификатор : 1
Формат : MPEG Audio
Версия формата : Version 1
Профиль формата : Layer 3
Режим : Joint stereo
Расширение режима : MS Stereo
Идентификатор кодека : 55
Идентификатор кодека/Подсказка : MP3
Продолжительность : 12 м.
Вид битрейта : Постоянный
Битрейт : 128 Кбит/сек
Каналы : 2 канала
Частота : 48,0 КГц
Метод сжатия : С потерями
Размер потока : 11,6 Мбайт (6%)
Выравнивание : Соединение по промежуткам
Продолжительность промежутка : 40 мс. (1,00 видеокадр)
Время предзагрузки промежутка : 504 мс.
Библиотека кодирования : LAME3.99r
Настройки программы : -m j -V 4 -q 3 -lowpass 17 -b 128
Other forum [Profile] [PM]
Similar theme
Forum Topic Author Torrent Replies Last Post
./templates/default/images/folder_dl.gif Обучающее видео Алена Кравченко - Видеошкола игры на гитаре. Сборник (диск 1, 2, 3 и видеоразборы песен группы Ария) [2009, DVDRip, RUS] sashau
1 | 0

0 | 2759

22

2013-05-14 20:20
sashau Latest
Display posts from previous:    
Reply to topic

The time now is: Today 15:39

All times are GMT + 3 Hours



You cannot post new topics in this forum
You cannot reply to topics in this forum
You cannot edit your posts in this forum
You cannot delete your posts in this forum
You cannot vote in polls in this forum
You cannot attach files in this forum
You cannot download files in this forum