Today is a free download without charge Download

Иван Царевич и Серый Волк 2 (Владимир Торопчин) [2013, Мультфильм, семейный, DVDRip - AVC]

Reply to topic
 
Author
Message

Omen ®

Longevity: 7 years 11 months

Posts: 181087

Торрент-статистика

Post 17-Jan-2014 05:00

[Quote]

Иван Царевич и Серый Волк 2
Страна: Россия
Жанр: Мультфильм, семейный
Продолжительность: 01:09:46
Год выпуска: 2013
Перевод: Не требуется
Русские субтитры: нет
Режиссёр: Владимир Торопчин
Роли озвучивали: Никита Ефремов, Татьяна Бунина, Иван Охлобыстин, Михаил Боярский, Ирина Рахманова, Александр Боярский
Описание: В Тридевятом царстве, где живут наши герои — тишь, да благодать. Иван женился на Василисе, и «жили они долго и счастливо», да не тут-то было. Иван целыми днями пропадает с Волком на службе — укрепляет рубежи и оборонную мощь, мечтает перевести стрелки часов на семь часов назад, чтобы меньше спать, и больше работать. А Василисе — скучно, как всем девушкам, ей хочется романтики, ну, такой, как в сказках. И тогда она решает организовать свое похищение… Однако, когда такое бывало, что в сказках все получалось так, как задумывалось ?
Семпл: http://multi-up.com/941027
Качество: DVDRip
Формат: MKV
Видео: 720x576 (16:9), 25.000 fps, AVC - 2355 kbps avg, 0.227 bit/pixel
Аудио: Русский, 48.0 KHz, AC3, 6.0 ch, 448 kbps
Субтитры: Отсутствуют

Подробные технические данные

ОбщееУникальный идентификатор : 189287615619324878317332111474180590346 (0x8E6777FCDF9733AA8EF29B8297F18B0A)Полное имя : D:\Торренты\Ivan.Carevich.i.Seriy.Volk.2013.x264.DVDRip.(AVC).mkvФормат : MatroskaВерсия формата : Version 1Размер файла : 1,37 ГбайтПродолжительность : 1 ч. 9 м.Общий поток : 2804 Кбит/секДата кодирования : UTC 2014-01-16 21:40:36Программа кодирования : mkvmerge v2.1.0 ('Another Place To Fall') built on Aug 19 2007 13:40:07Библиотека кодирования : libebml v0.7.7 + libmatroska v0.8.1
ВидеоИдентификатор : 1Формат : AVCФормат/Информация : Advanced Video CodecПрофиль формата : [email protected]Параметр CABAC формата : ДаПараметр ReFrames формата : 8 кадровИдентификатор кодека : V_MPEG4/ISO/AVCПродолжительность : 1 ч. 9 м.Битрейт : 2355 Кбит/секШирина : 720 пикселейВысота : 576 пикселейСоотношение сторон : 16:9Соотношение сторон в оригинале : 5:4Режим частоты кадров : ПостоянныйЧастота кадров : 25,000 кадров/секСтандарт вещания : PALЦветовое пространство : YUVСубдискретизация насыщенности : 4:2:0Битовая глубина : 8 битТип развёртки : ПрогрессивнаяБит/(Пиксели*Кадры) : 0.227Размер потока : 1,12 Гбайт (82%)Библиотека кодирования : x264 core 125 r2200 999b753Настройки программы : cabac=1 / ref=8 / deblock=1:-2:-2 / analyse=0x3:0x113 / me=umh / subme=9 / psy=1 / psy_rd=1.00:0.00 / mixed_ref=1 / me_range=32 / chroma_me=1 / trellis=2 / 8x8dct=1 / cqm=0 / deadzone=21,11 / fast_pskip=0 / chroma_qp_offset=-2 / threads=6 / lookahead_threads=1 / sliced_threads=0 / nr=0 / decimate=0 / interlaced=0 / bluray_compat=0 / constrained_intra=0 / bframes=8 / b_pyramid=2 / b_adapt=2 / b_bias=0 / direct=3 / weightb=1 / open_gop=0 / weightp=2 / keyint=250 / keyint_min=25 / scenecut=40 / intra_refresh=0 / rc=2pass / mbtree=0 / bitrate=2355 / ratetol=1.0 / qcomp=0.60 / qpmin=0 / qpmax=69 / qpstep=4 / cplxblur=20.0 / qblur=0.5 / ip_ratio=1.40 / pb_ratio=1.30 / aq=1:1.10Язык : EnglishDefault : ДаForced : Нет
АудиоИдентификатор : 2Формат : AC-3Формат/Информация : Audio Coding 3Расширение режима : CM (complete main)Параметр Endianness формата : BigИдентификатор кодека : A_AC3Продолжительность : 1 ч. 9 м.Вид битрейта : ПостоянныйБитрейт : 448 Кбит/секКаналы : 6 каналовРасположение каналов : Front: L C R, Side: L R, LFEЧастота : 48,0 КГцБитовая глубина : 16 битМетод сжатия : С потерямиРазмер потока : 224 Мбайт (16%)Заголовок : РусскийЯзык : RussianDefault : ДаForced : Нет

Скриншоты

Other forum [Profile] [PM]
Display posts from previous:    
Reply to topic

The time now is: Today 08:50

All times are GMT + 3 Hours



You cannot post new topics in this forum
You cannot reply to topics in this forum
You cannot edit your posts in this forum
You cannot delete your posts in this forum
You cannot vote in polls in this forum
You cannot attach files in this forum
You cannot download files in this forum