Today is a free download without charge Download

День везения (Николай Титов) [2012, короткометражный анимационный фильм, WEBRip]

Reply to topic
 
Author
Message

Omen ®

Longevity: 7 years 11 months

Posts: 181087

Торрент-статистика

Post 17-Jan-2014 05:00

[Quote]

День везения Год выпуска: 2012
Страна: Россия Союзмультфильм
Жанр: короткометражный анимационный фильм
Продолжительность: 00:07:16
Перевод: не требуется
Субтитры: отсутствуют- Режиссёр: Николай Титов- Описание: Ремейк старого доброго советского кукольного мультфильма. Как пересказывают мультфильмы на новый лад, вы можете посмотреть онлайн в нашем интернет-кинотеатре. "День везения" рассказывает про застенчивого бегемотика по имени Топ. Он был очень скромным, молчаливым и все время грустным, потому что жил на самом краю света. Топ мечтал с кем-нибудь поговорить, чтобы к нему кто-нибудь пришел в гости, хотя бы самый обычный прохожий. Топ даже заготовил сценарий для такого случая. Но Топу хронически не везло, никто не приходил к нему в гости, и никто никогда не проходил мимо. Но однажды, обычным солнечным днем на горизонте появился кот по имени Мармеладий. У него не было дома, поэтому он шел куда глаза глядят и больше всего на свете хотел, чтобы его кто-нибудь позвал в гости. Беда в том, что Мармеладий был очень гордым, поэтому никому и никогда не признавался в своих желаниях. И вот этим днем две одинокие души нашли друг друга.-- Качество: WEBRip
Формат: AVI
Видео кодек: XviD
Аудио кодек: MP3
Видео: 688x512 , (1.34:1), 25 fps, XviD build 65 ~2326 kbps avg, 0.26 bit/pixel
Аудио: 48 kHz, MPEG Layer 3, 2 ch, ~128.00 kbps avg

MediaInfo

Общее
Полное имя : C:\День везения\День везения.2012.WEBRip.avi
Формат : AVI
Формат/Информация : Audio Video Interleave
Размер файла : 128 Мбайт
Продолжительность : 7 м. 16 с.
Общий поток : 2464 Кбит/сек
Программа кодирования : VirtualDubMod 1.5.10.3 (build 2550/release)
Библиотека кодирования : VirtualDubMod build 2550/release
Видео
Идентификатор : 0
Формат : MPEG-4 Visual
Профиль формата : Advanced [email protected]
Параметр BVOP формата : 2
Параметр QPel формата : Нет
Параметр GMC формата : Без точки перехода
Параметр матрицы формата : Выборочная
Идентификатор кодека : XVID
Идентификатор кодека/Подсказка : XviD
Продолжительность : 7 м. 16 с.
Битрейт : 2326 Кбит/сек
Ширина : 688 пикселей
Высота : 512 пикселей
Соотношение сторон : 4:3
Частота кадров : 25,000 кадров/сек
Цветовое пространство : YUV
Субдискретизация насыщенности : 4:2:0
Битовая глубина : 8 бит
Тип развёртки : Прогрессивная
Метод сжатия : С потерями
Бит/(Пиксели*Кадры) : 0.264
Размер потока : 121 Мбайт (94%)
Библиотека кодирования : XviD 65
Аудио
Идентификатор : 1
Формат : MPEG Audio
Версия формата : Version 1
Профиль формата : Layer 3
Режим : Joint stereo
Расширение режима : MS Stereo
Идентификатор кодека : 55
Идентификатор кодека/Подсказка : MP3
Продолжительность : 7 м. 16 с.
Вид битрейта : Постоянный
Битрейт : 128 Кбит/сек
Каналы : 2 канала
Частота : 48,0 КГц
Метод сжатия : С потерями
Размер потока : 6,67 Мбайт (5%)
Выравнивание : Соединение по промежуткам
Продолжительность промежутка : 40 мс. (1,00 видеокадр)
Время предзагрузки промежутка : 504 мс.
Библиотека кодирования : LAME3.99r
Настройки программы : -m j -V 4 -q 3 -lowpass 17 -b 128
Other forum [Profile] [PM]
Display posts from previous:    
Reply to topic

The time now is: Today 19:23

All times are GMT + 3 Hours



You cannot post new topics in this forum
You cannot reply to topics in this forum
You cannot edit your posts in this forum
You cannot delete your posts in this forum
You cannot vote in polls in this forum
You cannot attach files in this forum
You cannot download files in this forum