Today is a free download without charge Download

Чертик на заборе (Роза Гиматдинова) [2012, короткометражный анимационный фильм, WEBRip]

Reply to topic
 
Author
Message

Omen ®

Longevity: 7 years 11 months

Posts: 181087

Торрент-статистика

Post 17-Jan-2014 05:00

[Quote]

Чертик на заборе Год выпуска: 2012
Страна: Россия Союзмультфильм
Жанр: короткометражный анимационный фильм
Продолжительность: 00:06:59
Перевод: не требуется
Субтитры: отсутствуют- Режиссёр: Роза Гиматдинова- Описание: Мультфильм-участник фестиваля в Суздале, созданный современными отечественными аниматорами легендарной студии «Союзмультфильм», которая и по сей день не перестает радовать зрителей. «Чертик на заборе» – это забавная, остроумная и даже немного мистическая история, которую мы предлагаем посмотреть онлайн детям и взрослым. Начинается мультфильм с того, что один маленький мальчик, прихватив свой красный мяч, отправляется на прогулку. По дороге ему попадается игривая серенькая кошечка, которая с удовольствием играет с фантиком. Хозяйкой кошки оказывается милая девочка, которая уносит свою питомицу домой. Ну а наш герой продолжает путь и встречает… еще одну кошку. На этот раз не серую, а черную, как смоль. Каждому известно, что это не к добру. Но смелый мальчик идет дальше, не обращая ровным счетом никакого внимания на приметы. Правда, уже через пару шагов он спотыкается, падает и произносит «Фу ты, черт!» И тут же с ним начинают твориться странные вещи.-- Качество: WEBRip
Формат: AVI
Видео кодек: XviD
Аудио кодек: MP3
Видео: 704x384 , (1.83:1), 25 fps, XviD build 65 ~1775 kbps avg, 0.26 bit/pixel
Аудио: 48 kHz, MPEG Layer 3, 2 ch, ~128.00 kbps avg

MediaInfo

Общее
Полное имя : C:\Чертик на заборе\Чертик на заборе.2012.WEBRip.avi
Формат : AVI
Формат/Информация : Audio Video Interleave
Размер файла : 95,8 Мбайт
Продолжительность : 6 м. 59 с.
Общий поток : 1914 Кбит/сек
Программа кодирования : VirtualDubMod 1.5.10.3 (build 2550/release)
Библиотека кодирования : VirtualDubMod build 2550/release
Видео
Идентификатор : 0
Формат : MPEG-4 Visual
Профиль формата : Advanced [email protected]
Параметр BVOP формата : 2
Параметр QPel формата : Нет
Параметр GMC формата : Без точки перехода
Параметр матрицы формата : Выборочная
Идентификатор кодека : XVID
Идентификатор кодека/Подсказка : XviD
Продолжительность : 6 м. 59 с.
Битрейт : 1776 Кбит/сек
Ширина : 704 пикселя
Высота : 384 пикселя
Соотношение сторон : 16:9
Частота кадров : 25,000 кадров/сек
Цветовое пространство : YUV
Субдискретизация насыщенности : 4:2:0
Битовая глубина : 8 бит
Тип развёртки : Прогрессивная
Метод сжатия : С потерями
Бит/(Пиксели*Кадры) : 0.263
Размер потока : 88,9 Мбайт (93%)
Библиотека кодирования : XviD 65
Аудио
Идентификатор : 1
Формат : MPEG Audio
Версия формата : Version 1
Профиль формата : Layer 3
Режим : Joint stereo
Расширение режима : MS Stereo
Идентификатор кодека : 55
Идентификатор кодека/Подсказка : MP3
Продолжительность : 6 м. 59 с.
Вид битрейта : Постоянный
Битрейт : 128 Кбит/сек
Каналы : 2 канала
Частота : 48,0 КГц
Метод сжатия : С потерями
Размер потока : 6,41 Мбайт (7%)
Выравнивание : Соединение по промежуткам
Продолжительность промежутка : 40 мс. (1,00 видеокадр)
Время предзагрузки промежутка : 504 мс.
Библиотека кодирования : LAME3.99r
Настройки программы : -m j -V 4 -q 3 -lowpass 17 -b 128
Other forum [Profile] [PM]
Display posts from previous:    
Reply to topic

The time now is: Today 15:01

All times are GMT + 3 Hours



You cannot post new topics in this forum
You cannot reply to topics in this forum
You cannot edit your posts in this forum
You cannot delete your posts in this forum
You cannot vote in polls in this forum
You cannot attach files in this forum
You cannot download files in this forum