Today is a free download without charge Download

Полосатый рейс (1961) BDRip [1080p]

Reply to topic
 
Author
Message

Varius ®

Gender:

Longevity: 11 years

Posts: 2428

Location: Hell

Торрент-статистика

Post 17-Jan-2014 04:47

[Quote]

Полосатый рейс (1961) BDRip- Год выпуска: 1961
Производство: СССР / Ленфильм
Жанр: Комедия, приключения, семейный
Перевод: Не требуется (Русский язык)
Субтитры: Вшитые отключаемые
Язык субтитров: Русский, английский
Режиссер: Владимир Фетин
Сценарий: Алексей Каплер, Виктор Конецкий
Актеры: Алексей Грибов, Иван Дмитриев, Маргарита Назарова, Евгений Леонов, Владимир Белокуров, Николай Волков, Александр Бениаминов, Аркадий Трусов, Алексей Смирнов, Алексей Кожевников
Описание фильма:
На советский теплоход погрузили опасный груз — тигров и львов, а сопровождать приставили буфетчика… Во время плавания маленькая обезьянка, подаренная капитану, открывает клетки. Хищники выходят на свободу, вся команда в ужасе разбегается. И только племяннице капитана удается спасти положение, укротив диких зверей…

Дата мировой премьеры: 27 июня 1961
Дата выхода DVD релиза: 11 января 2011, «Парадиз Медиа»
Дата выхода Blu-Ray релиза: 14 января 2014, «Lizard Cinema Trade»
Возраст: 12+
Продолжительность: 01:27:07
Качество видео: BDRip
Видео: MPEG4_AVC/H.264, 1480x1080, ~9100 kbps, 23.976 fps
Аудио 1: DTS 5.1, 1536 kbps, 48 kHz [Русский]
Аудио 2: AC3 5.1, 448 kbps, 48 kHz [Русский]

Отчёт MediaInfo

Полное имя : D:\Полосатый.рейс.(1961).BDRip.[1080p].mkv
Формат : Matroska
Версия формата : Version 2
Размер файла : 6,73 Гбайт
Продолжительность : 1 ч. 27 м.
Общий поток : 11,1 Мбит/сек
Название фильма : Полосатый рейс (1961)
Дата кодирования : UTC 2014-01-16 17:53:17
Программа кодирования : mkvmerge v5.7.0 ('The Whirlwind') built on Aug 7 2012 14:11:40
Библиотека кодирования : libebml v1.2.3 + libmatroska v1.3.0
Attachment : Yes
Видео
Идентификатор : 1
Формат : AVC
Формат/Информация : Advanced Video Codec
Профиль формата : [url=mailto:[email protected]][email protected][/url]
Параметр CABAC формата : Да
Параметр ReFrames формата : 5 кадров
Идентификатор кодека : V_MPEG4/ISO/AVC
Продолжительность : 1 ч. 27 м.
Битрейт : 9100 Кбит/сек
Ширина : 1480 пикселей
Высота : 1080 пикселей
Соотношение сторон : 1,370
Режим частоты кадров : Постоянный
Частота кадров : 23,976 кадра/сек
Цветовое пространство : YUV
Субдискретизация насыщенности : 4:2:0
Битовая глубина : 8 бит
Тип развёртки : Прогрессивная
Бит/(Пиксели*Кадры) : 0.237
Размер потока : 5,41 Гбайт (80%)
Заголовок : Полосатый.рейс.(1961).BDRip.[1080p]
Библиотека кодирования : x264 core 138 r2358 9e941d1
Настройки программы : cabac=1 / ref=5 / deblock=1:-3:-3 / analyse=0x3:0x113 / me=umh / subme=11 / psy=1 / psy_rd=1.00:0.00 / mixed_ref=1 / me_range=32 / chroma_me=1 / trellis=2 / 8x8dct=1 / cqm=0 / deadzone=21,11 / fast_pskip=1 / chroma_qp_offset=-2 / threads=12 / lookahead_threads=1 / sliced_threads=0 / nr=0 / decimate=1 / interlaced=0 / bluray_compat=0 / constrained_intra=0 / bframes=5 / b_pyramid=2 / b_adapt=1 / b_bias=0 / direct=2 / weightb=1 / open_gop=0 / weightp=2 / keyint=240 / keyint_min=23 / scenecut=40 / intra_refresh=0 / rc_lookahead=40 / rc=2pass / mbtree=1 / bitrate=9100 / ratetol=1.0 / qcomp=0.60 / qpmin=10 / qpmax=51 / qpstep=4 / cplxblur=20.0 / qblur=0.5 / vbv_maxrate=62500 / vbv_bufsize=78125 / nal_hrd=none / ip_ratio=1.40 / aq=1:1.00
Язык : Russian
Default : Да
Forced : Нет
Аудио #1
Идентификатор : 2
Формат : DTS
Формат/Информация : Digital Theater Systems
Идентификатор кодека : A_DTS
Продолжительность : 1 ч. 27 м.
Вид битрейта : Постоянный
Битрейт : 1510 Кбит/сек
Каналы : 6 каналов
Расположение каналов : Front: L C R, Side: L R, LFE
Частота : 48,0 КГц
Битовая глубина : 24 бит
Метод сжатия : С потерями
Размер потока : 941 Мбайт (14%)
Заголовок : DTS 5.1 / 1536 kbps
Язык : Russian
Default : Да
Forced : Нет
Аудио #2
Идентификатор : 3
Формат : AC-3
Формат/Информация : Audio Coding 3
Расширение режима : CM (complete main)
Параметр Endianness формата : Big
Идентификатор кодека : A_AC3
Продолжительность : 1 ч. 27 м.
Вид битрейта : Постоянный
Битрейт : 448 Кбит/сек
Каналы : 6 каналов
Расположение каналов : Front: L C R, Side: L R, LFE
Частота : 48,0 КГц
Битовая глубина : 16 бит
Метод сжатия : С потерями
Размер потока : 279 Мбайт (4%)
Заголовок : AC3 5.1 / 448 kbps
Язык : Russian
Default : Нет
Forced : Нет
Текст #1
Идентификатор : 4
Формат : UTF-8
Идентификатор кодека : S_TEXT/UTF8
Идентификатор кодека/Информация : UTF-8 Plain Text
Заголовок : Full
Язык : Russian
Default : Нет
Forced : Нет
Текст #2
Идентификатор : 5
Формат : UTF-8
Идентификатор кодека : S_TEXT/UTF8
Идентификатор кодека/Информация : UTF-8 Plain Text
Заголовок : Full
Язык : English
Default : Нет
Forced : Нет
Меню
00:00:00.000 : ru:Chapter 1
00:03:10.190 : ru:Chapter 2
00:11:23.683 : ru:Chapter 3
00:14:34.874 : ru:Chapter 4
00:26:39.598 : ru:Chapter 5
00:31:30.889 : ru:Chapter 6
00:38:07.285 : ru:Chapter 7
00:43:13.591 : ru:Chapter 8
00:51:36.093 : ru:Chapter 9
01:04:49.886 : ru:Chapter 10
01:14:44.479 : ru:Chapter 11
01:23:28.003 : ru:Chapter 12

Дополнительно

Полная реставрация изображения и звука. Исходные киноматериалы подготовлены Госфильмофондом России. Покадровая цифровая реставрация изображения, ремастеринг звука и авторинг проведены объединением «Крупный план».
Скриншоты:
       
       

_________________

Создавая "Новую папку", не считайте себя Создателем - это право Вам дано Админом


Other forum [Profile] [PM]
Display posts from previous:    
Reply to topic

The time now is: Today 14:02

All times are GMT + 3 Hours



You cannot post new topics in this forum
You cannot reply to topics in this forum
You cannot edit your posts in this forum
You cannot delete your posts in this forum
You cannot vote in polls in this forum
You cannot attach files in this forum
You cannot download files in this forum