Today is a free download without charge Download

Полосатый рейс (Владимир Фетин) [1961, СССР, комедия, приключения, BDRip 1080p] + Sub Eng

Reply to topic
 
Author
Message

Omen ®

Longevity: 8 years 10 months

Posts: 181086

Торрент-статистика

Post 16-Jan-2014 23:05

[Quote]

Полосатый рейс
Страна: СССР
Студия: Ленфильм
Жанр: комедия, приключения
Год выпуска: 1961
Продолжительность: 01:23:40
Cубтитры: Русские, английские
Режиссер: Владимир Фетин
В ролях: Алексей Грибов, Иван Дмитриев, Маргарита Назарова, Евгений Леонов, Владимир Белокуров, Николай Волков, Александр Бениаминов, Аркадий Трусов, Алексей Смирнов, Алексей Кожевников
Описание: На пароходе "Евгений Онегин", следующем по маршруту Цейлон - Одесса, перевозится живой груз - тигры и львы для зоопарка. Сопровождающее лицо - товарищ Шулейкин - на самом деле до смерти боится полосатых пассажиров, потому что по профессии он не дрессировщик, а повар. И так случилось, что проказница-обезьянка, выпустила хищников из клеток.

Качество видео: BDRip 1080p
Формат видео: mkv
Видео: 1480x1080 (1,37:1), 23.976 fps, [email protected], 9100 kbps
Аудио: Русский, AC3, 6 ch, 448 Кбит/с
Аудио2: Русский, DTS, 6 ch, 1510 Кбит/с

MediaInfo

General
Unique ID : 223178125276131662018417808597796737480 (0xA7E68B1EE4CAEFD7AB26B78CF98F51C8)
Complete name : C:\Users\Администратор\Downloads\Polosatiy.Reys.1080p.mkv
Format : Matroska
Format version : Version 4 / Version 2
File size : 6.73 GiB
Duration : 1h 27mn
Overall bit rate : 11.1 Mbps
Movie name : CMEGRoup
Encoded date : UTC 2014-01-16 10:22:53
Writing application : mkvmerge v6.7.0 ('Back to the Ground') 32bit built on Jan 8 2014 15:03:17
Writing library : libebml v1.3.0 + libmatroska v1.4.1
Video
ID : 1
Format : AVC
Format/Info : Advanced Video Codec
Format profile : [email protected]
Format settings, CABAC : Yes
Format settings, ReFrames : 5 frames
Codec ID : V_MPEG4/ISO/AVC
Duration : 1h 27mn
Bit rate : 9 100 Kbps
Width : 1 480 pixels
Height : 1 080 pixels
Display aspect ratio : 1.370
Frame rate mode : Constant
Frame rate : 23.976 fps
Color space : YUV
Chroma subsampling : 4:2:0
Bit depth : 8 bits
Scan type : Progressive
Bits/(Pixel*Frame) : 0.237
Stream size : 5.41 GiB (80%)
Writing library : x264 core 138 r2358 9e941d1
Encoding settings : cabac=1 / ref=5 / deblock=1:-3:-3 / analyse=0x3:0x113 / me=umh / subme=11 / psy=1 / psy_rd=1.00:0.00 / mixed_ref=1 / me_range=32 / chroma_me=1 / trellis=2 / 8x8dct=1 / cqm=0 / deadzone=21,11 / fast_pskip=1 / chroma_qp_offset=-2 / threads=12 / lookahead_threads=1 / sliced_threads=0 / nr=0 / decimate=1 / interlaced=0 / bluray_compat=0 / constrained_intra=0 / bframes=5 / b_pyramid=2 / b_adapt=1 / b_bias=0 / direct=2 / weightb=1 / open_gop=0 / weightp=2 / keyint=240 / keyint_min=23 / scenecut=40 / intra_refresh=0 / rc_lookahead=40 / rc=2pass / mbtree=1 / bitrate=9100 / ratetol=1.0 / qcomp=0.60 / qpmin=10 / qpmax=51 / qpstep=4 / cplxblur=20.0 / qblur=0.5 / vbv_maxrate=62500 / vbv_bufsize=78125 / nal_hrd=none / ip_ratio=1.40 / aq=1:1.00
Language : English
Default : Yes
Forced : No
Audio #1
ID : 2
Format : AC-3
Format/Info : Audio Coding 3
Mode extension : CM (complete main)
Format settings, Endianness : Big
Codec ID : A_AC3
Duration : 1h 27mn
Bit rate mode : Constant
Bit rate : 448 Kbps
Channel count : 6 channels
Channel positions : Front: L C R, Side: L R, LFE
Sampling rate : 48.0 KHz
Bit depth : 16 bits
Compression mode : Lossy
Stream size : 279 MiB (4%)
Language : Russian
Default : Yes
Forced : No
Audio #2
ID : 3
Format : DTS
Format/Info : Digital Theater Systems
Mode : 16
Format settings, Endianness : Big
Codec ID : A_DTS
Duration : 1h 27mn
Bit rate mode : Constant
Bit rate : 1 509 Kbps
Channel count : 6 channels
Channel positions : Front: L C R, Side: L R, LFE
Sampling rate : 48.0 KHz
Bit depth : 24 bits
Compression mode : Lossy
Stream size : 940 MiB (14%)
Language : Russian
Default : No
Forced : No
Text #1
ID : 4
Format : UTF-8
Codec ID : S_TEXT/UTF8
Codec ID/Info : UTF-8 Plain Text
Language : Russian
Default : No
Forced : No
Text #2
ID : 5
Format : UTF-8
Codec ID : S_TEXT/UTF8
Codec ID/Info : UTF-8 Plain Text
Language : English
Default : No
Forced : No

Скриншоты

Other forum [Profile] [PM]

uschakov.yura

Gender:

Longevity: 9 years 5 months

Posts: 400

Location: Рыбинск Ярославской области

Торрент-статистика

Post 17-Jan-2014 08:25 (after 9 hours)

[Quote]

Omen, наверное, для Вас СССР зарубежное кино, тогда хоть указывайте качество перевода, а для нас это классика отечественных фильмов, самого доброво

_________________
uschakov.yura
Other forum [Profile] [PM]

Dracula

Longevity: 7 years 11 months

Posts: 11007

Торрент-статистика

Post 17-Jan-2014 09:34 (after 1 hour 9 minutes)

Топик был перенесен из форума Зарубежное кино (HD Video) в форум Наше кино (HD Video)


Delia
 
Display posts from previous:    
Reply to topic

The time now is: Today 22:19

All times are GMT + 3 Hours



You cannot post new topics in this forum
You cannot reply to topics in this forum
You cannot edit your posts in this forum
You cannot delete your posts in this forum
You cannot vote in polls in this forum
You cannot attach files in this forum
You cannot download files in this forum