Today is a free download without charge Download

Сталинград (Фёдор Бондарчук) [2013, Россия, Военный, драма, боевик, BDRip 1080p]

Reply to topic
 
Author
Message

Omen ®

Longevity: 8 years 10 months

Posts: 181086

Торрент-статистика

Post 14-Jan-2014 20:00

[Quote]

Сталинград
Страна: Россия
Студия: Арт Пикчерс Студия, Нон-стоп Продакшн
Жанр: Военный, драма, боевик
Год выпуска: 2013
Продолжительность: 02:10:48
Перевод: Не требуется
Cубтитры: нет
Оригинальная аудиодорожка: русский-Режиссер: Фёдор Бондарчук
В ролях: Мария Смольникова, Яна Студилина, Пётр Фёдоров, Томас Кречман, Сергей Бондарчук, Дмитрий Лысенков, Андрей Смоляков, Алексей Барабаш, Олег Волку, Хайнер Лаутербах-Описание: 1942-й год. Сталинград. Советские войска планируют контрнаступление на немецкие части, занявшие правый берег Волги. Наступление сорвано. Лишь разведчикам под командованием капитана Громова удается перебраться на другой берег и закрепиться в одном из домов. Им дан приказ удержать его любой ценой. Кроме нескольких чудом уцелевших советских солдат они находят в доме его последнюю жительницу — 19-летнюю Катю.Приказ отбить дом, захваченный противником, получает немецкий офицер Кан. На фоне одного из самых кровопролитных сражений в истории человечества разворачиваются истории любви и драматического противостояния характеров.
-Сэмпл-Релиз от: Sunny
Тип релиза: BDRip 1080p
Контейнер: MKV
Видео: AVC, 1920x792, ~9000 kbps, 24,000 fps
Аудио RUS: DTS, ~1536 kbps, 48 kHz, 6 ch

Подробные технические данные

Формат : Matroska
Версия формата : Version 4 / Version 2
Размер файла : 9,59 Гбайт
Продолжительность : 2 ч. 10 м.
Общий поток : 10,5 Мбит/сек
Дата кодирования : UTC 2013-12-06 03:21:03
Программа кодирования : mkvmerge v6.6.0 ('The Edge Of The In Between') built on Dec 1 2013 17:55:00
Библиотека кодирования : libebml v1.3.0 + libmatroska v1.4.1
Видео
Идентификатор : 1
Формат : AVC
Формат/Информация : Advanced Video Codec
Профиль формата : [email protected]
Параметр CABAC формата : Да
Параметр ReFrames формата : 5 кадров
Идентификатор кодека : V_MPEG4/ISO/AVC
Продолжительность : 2 ч. 10 м.
Битрейт : 9000 Кбит/сек
Ширина : 1920 пикселей
Высота : 792 пикселя
Соотношение сторон : 2,40:1
Режим частоты кадров : Постоянный
Частота кадров : 24,000 кадра/сек
Цветовое пространство : YUV
Субдискретизация насыщенности : 4:2:0
Битовая глубина : 8 бит
Тип развёртки : Прогрессивная
Бит/(Пиксели*Кадры) : 0.247
Размер потока : 8,02 Гбайт (84%)
Библиотека кодирования : x264 core 140 r2377kMod 1ca7bb9
Настройки программы : cabac=1 / ref=5 / deblock=1:-3:-3 / analyse=0x3:0x133 / me=umh / subme=11 / psy=1 / fade_compensate=0.00 / psy_rd=1.10:0.00 / mixed_ref=1 / me_range=64 / chroma_me=1 / trellis=2 / 8x8dct=1 / cqm=0 / deadzone=21,11 / fast_pskip=0 / chroma_qp_offset=-2 / threads=12 / lookahead_threads=2 / sliced_threads=0 / nr=0 / decimate=0 / interlaced=0 / bluray_compat=0 / constrained_intra=0 / fgo=0 / bframes=7 / b_pyramid=2 / b_adapt=2 / b_bias=0 / direct=3 / weightb=1 / open_gop=0 / weightp=2 / keyint=250 / keyint_min=24 / scenecut=40 / intra_refresh=0 / rc_lookahead=40 / rc=2pass / mbtree=0 / bitrate=9000 / ratetol=1.0 / qcomp=0.75 / qpmin=0 / qpmax=69 / qpstep=4 / cplxblur=20.0 / qblur=0.5 / vbv_maxrate=50000 / vbv_bufsize=62500 / nal_hrd=none / filler=0 / ip_ratio=1.40 / pb_ratio=1.30 / aq=1:0.60
Язык : Russian
Default : Да
Forced : Нет
Основные цвета : BT.709
Характеристики трансфера : BT.709
Коэффициенты матрицы : BT.709
Аудио
Идентификатор : 2
Формат : DTS
Формат/Информация : Digital Theater Systems
Режим : 16
Параметр Endianness формата : Big
Идентификатор кодека : A_DTS
Продолжительность : 2 ч. 10 м.
Вид битрейта : Постоянный
Битрейт : 1510 Кбит/сек
Каналы : 6 каналов
Расположение каналов : Front: L C R, Side: L R, LFE
Частота : 48,0 КГц
Битовая глубина : 24 бит
Метод сжатия : С потерями
Размер потока : 1,38 Гбайт (14%)
Язык : Russian
Default : Да
Forced : Нет
Меню
00:00:00.000 : en:00:00:00.000
00:00:04.000 : en:00:00:04.000
00:15:40.458 : en:00:15:40.458
00:32:01.417 : en:00:32:01.417
00:46:07.125 : en:00:46:07.125
01:03:22.250 : en:01:03:22.250
01:20:44.000 : en:01:20:44.000
01:35:51.417 : en:01:35:51.417
01:51:09.125 : en:01:51:09.125

Скриншоты

Other forum [Profile] [PM]

Dracula

Longevity: 7 years 11 months

Posts: 11008

Торрент-статистика

Post 06-Feb-2014 08:13 (after 22 days)

Топик был перенесен из форума Зарубежное кино (HD Video) в форум Наше кино (HD Video)


Delia
 
Display posts from previous:    
Reply to topic

The time now is: Today 12:30

All times are GMT + 3 Hours



You cannot post new topics in this forum
You cannot reply to topics in this forum
You cannot edit your posts in this forum
You cannot delete your posts in this forum
You cannot vote in polls in this forum
You cannot attach files in this forum
You cannot download files in this forum