Today is a free download without charge Download

Дело № … (Фаина Епифанова) [1964 г., мультфильм, сатира, DVB]

Reply to topic
 
Author
Message

Omen ®

Longevity: 7 years 11 months

Posts: 181087

Торрент-статистика

Post 12-Jan-2014 23:02

[Quote]

Дело № …
Жанр: мультфильм, сатира
Год выпуска: 1964
Продолжительность: 00:16:53
Режиссёр: Фаина Епифанова
Описание: В то время как другие муравьи неутомимо трудятся над построением развитого насекомого общества, один из них, нерадивый мерзавец, прекрасно проводит время в компании дружка-трутня и двух бабочек легкого поведения. Они попадают под влияние хитрого коварного жука кавказской национальности и его подельника-паука, которые все-таки заставляют их "работать". Но это уже совсем другая работа, и тунеядцев ожидает неминуемая, но справедливая расплата ...
Доп. информация: огромная благодарность за предоставленный исходник

Трансляция спутникового канала:

Качество видео: DVB
Формат видео: MPEG-PS
Видео: MPEG2 Video, [email protected] (4:3), анаморф, 25 fps, 2200 kbps
Аудио: MPEG Audio, 2 сh, 48 kHz, 192 kbps

MediaInfo

D:\Дело № (1964)_DVB by RG multfilms.mpg
General
Complete name : D:\Дело № (1964)_DVB by RG multfilms.mpg
Format : MPEG-PS
File size : 290 MiB
Duration : 16mn 53s
Overall bit rate mode : Variable
Overall bit rate : 2 400 Kbps
Video #224
ID : 224 (0xE0)
Format : MPEG Video
Format version : Version 2
Format profile : [email protected]
Format settings, BVOP : Yes
Format settings, Matrix : Custom
Format settings, GOP : M=3, N=21
Duration : 16mn 53s
Bit rate mode : Variable
Bit rate : 2 160 Kbps
Maximum bit rate : 15.0 Mbps
Width : 544 pixels
Height : 576 pixels
Display aspect ratio : 4:3
Frame rate : 25.000 fps
Color space : YUV
Chroma subsampling : 4:2:0
Bit depth : 8 bits
Scan type : Interlaced
Scan order : Top Field First
Compression mode : Lossy
Bits/(Pixel*Frame) : 0.276
Stream size : 261 MiB (90%)
Audio #192
ID : 192 (0xC0)
Format : MPEG Audio
Format version : Version 1
Format profile : Layer 2
Duration : 16mn 53s
Bit rate mode : Constant
Bit rate : 192 Kbps
Channel(s) : 2 channels
Sampling rate : 48.0 KHz
Compression mode : Lossy
Stream size : 23.2 MiB (8%)

Скриншоты


Other forum [Profile] [PM]
Display posts from previous:    
Reply to topic

The time now is: Today 13:31

All times are GMT + 3 Hours



You cannot post new topics in this forum
You cannot reply to topics in this forum
You cannot edit your posts in this forum
You cannot delete your posts in this forum
You cannot vote in polls in this forum
You cannot attach files in this forum
You cannot download files in this forum