Today is a free download without charge Download

Москва слезам не верит (Владимир Меньшов) [1979, СССР, драма, мелодрама, комедия, BDRip 720p]

Reply to topic
 
Author
Message

Omen ®

Longevity: 8 years 10 months

Posts: 181086

Торрент-статистика

Post 24-Nov-2011 11:23

[Quote]

Москва слезам не верит-
Страна: СССР
Жанр: драма, мелодрама, комедия
Год выпуска: 1979
Продолжительность: 02:28:17
Cубтитры: нет-Режиссер: Владимир Меньшов
В ролях: Вера Алентова, Ирина Муравьёва, Алексей Баталов, Раиса Рязанова, Александр Фатюшин, Борис Сморчков, Виктор Уральский, Валентина Ушакова, Юрий Васильев, Евгения Ханаева
Описание: Москва пятидесятых годов. Три молодые провинциалки приезжают в Москву в поисках того, что ищут люди во всех столицах мира - любви, счастья и достатка. Их судьбы складываются именно так, как предполагает характер каждой из девушек. Антонина выходит замуж, растит детей, любит мужа. Людмиле Москва представляется лотереей, в которой она должна выиграть свое особенное счастье. Катерина же - отчаянно влюбляется, но избранник ее оставляет. Однако она не опускает руки, в одиночку растит дочь и к тому же успевает сделать блестящую карьеру. В сорок лет судьба дарит ей встречу с прекрасным человеком и настоящую любовь...- -Тип релиза: BDRip 720p
Контейнер: MKV
Видео: 948x720 at 23.976, ~4686 kbps avg
Аудио 1: 48 kHz, DTS, 3/2 (L,C,R,l,r) + LFE ch, ~1536.00 kbps
Аудио 2: 48 kHz, AC3, 1/0 (C) , ~192.00 kbps avg

Скриншоты

         

Знаете ли вы, что...

• Режиссер картины Владимир Меньшов сыграл в фильме небольшую роль-камео. Его герой - это один из друзей Гоши, которые присутствовали на пикнике.
• На роль Катерины Тихомировой приглашали Ирину Купченко и Маргариту Терехову.
• Занимает по посещаемости 2-е место среди отечественных фильмов за всю историю советского кинопроката.
• Лучший фильм по опросу журнала «Советский экран» в 1981 году.
• Когда герои Алентовой и Баталова включают телевизор (перед приходом Александры), то «сетку» на экране сопровождает вальс из кинофильма «Розыгрыш» - предыдущей режиссёрской работы Владимира Меньшова. Подобный приём используется в следующем фильме Меньшова «Любовь и голуби», где по телевизору показывают фрагмент из «Москва слезам не верит».
• Сценарий фильма был написан Валентином Чёрных для конкурса на лучший фильм о Москве. Он занял всего лишь третье место. Правда, два первых места вообще никому не присудили: не нашли достойных.
• На роль сорокалетнего слесаря Гоши режиссёр пробовал Виталия Соломина, Леонида Дьячкова, других актёров. Ни один не подходил. И тогда Меньшов решил, что в крайнем случае сыграет эту роль сам.
• Мужа Антонины мог сыграть Юрий Кузьменков. Но ассистент тогда привела двух актёров, которых Меньшов не знал. Это Борис Сморчков, его утвердили на роль Николая, и Александр Фатюшин, ставший в фильме хоккеистом Гуриным.
• Исчез из фильма эпизод, где хоккеист Гурин (Александр Фатюшин), объявивший, что «завязал со спиртным и уходит на тренерскую работу», снова появляется пьяный и говорит: «Займи ещё трёшку для ровного счёта». Режиссёра попросили это убрать, сказав: «Давайте оставим надежду. Пусть зритель верит, что Гурин исправился».
-Полная реставрация изображения и звука. Исходные киноматериалы подготовлены Госфильмофондом России. Покадровая цифровая реставрация изображения, ремастеринг звука и авторинг проведены объединением «Крупный план».- Премия «Оскар» за Лучший фильм на иностранном языке — «СССР»), 1981г.-

MediaInfo

Код:
Формат : Matroska
Версия формата : Version 2
Размер файла : 6,75 Гбайт
Продолжительность : 2 ч. 28 м.
Общий поток : 6517 Кбит/сек
Название фильма : Москва слезам не верит (1979) - Release for HDCLUB
Дата кодирования : UTC 2011-11-22 14:32:06
Программа кодирования : mkvmerge v5.0.1 ('Es ist Sommer') built on Oct 9 2011 11:55:43
Библиотека кодирования : libebml v1.2.2 + libmatroska v1.3.0
Видео
Идентификатор : 1
Формат : AVC
Формат/Информация : Advanced Video Codec
Профиль формата : [email protected]
Параметр CABAC формата : Да
Параметр ReFrames формата : 10 кадров
Идентификатор кодека : V_MPEG4/ISO/AVC
Продолжительность : 2 ч. 28 м.
Битрейт : 4686 Кбит/сек
Ширина : 948 пикселей
Высота : 720 пикселей
Соотношение сторон : 4:3
Частота кадров : 23,976 кадра/сек
Цветовое пространство : YUV
Субдискретизация насыщенности : 4:2:0
Битовая глубина : 8 бит
Тип развёртки : Прогрессивная
Бит/(Пиксели*Кадры) : 0.286
Размер потока : 4,85 Гбайт (72%)
Заголовок : Москва слезам не верит (1979) - Release for HDCLUB
Библиотека кодирования : x264 core 119 r2106 07efeb4
Настройки программы : cabac=1 / ref=10 / deblock=1:-3:-3 / analyse=0x3:0x133 / me=umh / subme=11 / psy=1 / psy_rd=1.00:0.00 / mixed_ref=1 / me_range=64 / chroma_me=1 / trellis=2 / 8x8dct=1 / cqm=0 / deadzone=21,11 / fast_pskip=0 / chroma_qp_offset=-2 / threads=9 / sliced_threads=0 / nr=0 / decimate=0 / interlaced=0 / bluray_compat=0 / constrained_intra=0 / bframes=6 / b_pyramid=2 / b_adapt=2 / b_bias=0 / direct=3 / weightb=1 / open_gop=0 / weightp=2 / keyint=250 / keyint_min=23 / scenecut=40 / intra_refresh=0 / rc_lookahead=40 / rc=crf / mbtree=0 / crf=16.7 / qcomp=0.60 / qpmin=0 / qpmax=69 / qpstep=4 / vbv_maxrate=50000 / vbv_bufsize=62500 / crf_max=0.0 / nal_hrd=none / ip_ratio=1.40 / pb_ratio=1.30 / aq=1:0.80
Язык : Russian
Default : Нет
Forced : Нет
Аудио #1
Идентификатор : 2
Формат : DTS
Формат/Информация : Digital Theater Systems
Идентификатор кодека : A_DTS
Продолжительность : 2 ч. 28 м.
Вид битрейта : Постоянный
Битрейт : 1510 Кбит/сек
Каналы : 6 каналов
Расположение каналов : Front: L C R, Side: L R, LFE
Частота : 48,0 КГц
Битовая глубина : 24 бит
Метод сжатия : С потерями
Размер потока : 1,56 Гбайт (23%)
Язык : Russian
Default : Да
Forced : Да
Аудио #2
Идентификатор : 3
Формат : AC-3
Формат/Информация : Audio Coding 3
Расширение режима : CM (complete main)
Идентификатор кодека : A_AC3
Продолжительность : 2 ч. 28 м.
Вид битрейта : Постоянный
Битрейт : 192 Кбит/сек
Каналы : 1 канал
Расположение каналов : Front: C
Частота : 48,0 КГц
Битовая глубина : 16 бит
Метод сжатия : С потерями
Размер потока : 204 Мбайт (3%)
Язык : Russian
Default : Нет
Forced : Нет
Other forum [Profile] [PM]
Display posts from previous:    
Reply to topic

The time now is: Today 14:26

All times are GMT + 3 Hours



You cannot post new topics in this forum
You cannot reply to topics in this forum
You cannot edit your posts in this forum
You cannot delete your posts in this forum
You cannot vote in polls in this forum
You cannot attach files in this forum
You cannot download files in this forum