Today is a free download without charge Download

Медальон Хититуйи / Hititya Madalyonun Sirri (Улас Сихан Симсек) (Приключения 2013) DVDRip [DVO]

Reply to topic
 
Author
Message

Omen ®

Longevity: 8 years 6 months

Posts: 181087

Торрент-статистика

Post 05-Jan-2014 23:40

[Quote]

Медальон Хититуйи
Hititya Madalyonun Sirri
- Год выпуска: 2013
Производство: Турция
Жанр: Приключения
Перевод: Двуголосый закадровый, любительский
Озвучка / Автор перевода: den904 & DeadSno
Субтитры: Отсутствуют
Дата мировой премьеры: 28 февраля 2013
Режиссер: Улас Сихан Симсек
Продюсер: Беркант Зинджиди, Tamer Zincidi, Али Экерт
Актеры: Эмир Берке Зинджиди, Авни Яльчин, Гюркан Уйгун
Описание фильма:
Однажды утром, таинственным образом попадает мама троих детишек. Никто не может ее найти...потому что находится она не в этом мире. Следуя зову сердца, дети находят странные символы на стене и попадают в темную пещеру, выйдя из которой, они оказываются в параллельном мире, называемом Хититуйя...

Продолжительность: 01:36:39
Качество видео: DVDRip
Видеокодек: Xvid
Битрейт видео: ~1831 Kbit/s
Размер кадра: 720 x 352
Аудиокодек: AC3 2.0
Битрейт аудио: 192 Kbit/s

MediaInfo

Общее
Полное имя : D:\Торренты\Медальон Хититуйи.2013.DVDRip.avi
Формат : AVI
Формат/Информация : Audio Video Interleave
Размер файла : 1,37 Гбайт
Продолжительность : 1 ч. 36 м.
Общий поток : 2033 Кбит/сек
Программа кодирования : VirtualDubMod 1.5.10.3 (build 2550/release)
Библиотека кодирования : VirtualDubMod build 2550/release
Видео
Идентификатор : 0
Формат : MPEG-4 Visual
Профиль формата : Advanced [email protected]
Параметр BVOP формата : 2
Параметр QPel формата : Нет
Параметр GMC формата : Без точки перехода
Параметр матрицы формата : Default (H.263)
Идентификатор кодека : XVID
Идентификатор кодека/Подсказка : XviD
Продолжительность : 1 ч. 36 м.
Битрейт : 1831 Кбит/сек
Ширина : 720 пикс.
Высота : 352 пикс.
Соотношение сторон : 2,045
Частота кадров : 25,000 кадр/сек
Цветовое пространство : YUV
Подвыборка цветности : 4:2:0
Битовая глубина : 8 бит
Тип развёртки : Прогрессивная
Метод сжатия : С потерями
Бит/(Пиксели*Кадры) : 0.289
Размер потока : 1,24 Гбайт (90%)
Библиотека кодирования : XviD 1.2.1 (UTC 2008-12-04)
Аудио
Идентификатор : 1
Формат : AC-3
Формат/Информация : Audio Coding 3
Расширение режима : CM (complete main)
Идентификатор кодека : 2000
Продолжительность : 1 ч. 36 м.
Вид битрейта : Постоянный
Битрейт : 192 Кбит/сек
Каналы : 2 канала
Расположение каналов : Front: L R
Частота : 48,0 КГц
Битовая глубина : 16 бит
Метод сжатия : С потерями
Размер потока : 133 Мбайт (9%)
Выравнивание : Разделение по промежуткам
Продолжительность промежутка : 40 мс. (1,00 видеокадр)
Время предзагрузки промежутка : 500 ms
Скриншоты:
           
Other forum [Profile] [PM]
Display posts from previous:    
Reply to topic

The time now is: Today 11:45

All times are GMT + 3 Hours



You cannot post new topics in this forum
You cannot reply to topics in this forum
You cannot edit your posts in this forum
You cannot delete your posts in this forum
You cannot vote in polls in this forum
You cannot attach files in this forum
You cannot download files in this forum