Today is a free download without charge Download

Кошки-мышки / Hiirejaht (Эльберт Туганов / Elbert Tuganov) [1965, кукольная анимация, DVDRip]

Reply to topic
 
Author
Message

Omen ®

Longevity: 7 years 11 months

Posts: 181087

Торрент-статистика

Post 03-Jan-2014 14:00

[Quote]

Кошки-мышки / Hiirejaht
Страна: СССР (Эстонская республика)
Жанр: кукольная анимация
Продолжительность: 00:10:10
Год выпуска: 1965
Перевод: не требуется
Русские субтитры: нет
Режиссёр: Эльберт Туганов / Elbert Tuganov
Описание: Пока коты слушали лекцию о вреде мышей, реальные мыши украли у них урожай пшеницы прямо с поля. На следующий день коты отправились на охоту за мышами. Уверенные в своём техническом превосходстве, они решили расслабиться при помощи валерьянки… и вновь остались в дураках.
Качество: DVDRip
Формат: AVI
Видео: 1789 kbps, 640х448 (1.429), 25.000 fps, MPEG-4 (XviD)
Аудио: 256 kbps, 48.0 kHz, 2 channels, AC-3
Субтитры: отсутствуют

Подробные технические данные

GeneralComplete name : Кошки-мышки (1965).aviFormat : AVIFormat/Info : Audio Video InterleaveFile size : 149 MiBDuration : 10mn 10sOverall bit rate : 2 055 KbpsMovie name : Hiirejaht [1965] SILENT+SILENT/DVDrip/FS/XviD/AC3 2ch+MP3 2chDirector : Elbert Tuganov [Tallinnfilm]Subject : http://www.imdb.com/title/tt0059272/Writing application : VirtualDubMod 1.5.10.2 (build 2540/release)Writing library : VirtualDubMod build 2540/releaseCopyright : (stolen by) BPDcarrier for .EE folksComment : Hiirejaht.1965.DVDrip.iNTERNAL.XviD-BPDcarrier.avi
VideoID : 0Format : MPEG-4 VisualFormat profile : Advanced [email protected] settings, BVOP : 1Format settings, QPel : NoFormat settings, GMC : No warppointsFormat settings, Matrix : Default (H.263)Codec ID : XVIDCodec ID/Hint : XviDDuration : 10mn 10sBit rate : 1 789 KbpsWidth : 640 pixelsHeight : 448 pixelsDisplay aspect ratio : 1.429Frame rate : 25.000 fpsColor space : YUVChroma subsampling : 4:2:0Bit depth : 8 bitsScan type : ProgressiveCompression mode : LossyBits/(Pixel*Frame) : 0.250Stream size : 130 MiB (87%)
AudioID : 1Format : AC-3Format/Info : Audio Coding 3Mode extension : CM (complete main)Format settings, Endianness : BigCodec ID : 2000Duration : 10mn 9sBit rate mode : ConstantBit rate : 256 KbpsChannel(s) : 2 channelsChannel positions : Front: L RSampling rate : 48.0 KHzBit depth : 16 bitsCompression mode : LossyStream size : 18.6 MiB (12%)Alignment : Split accross interleavesInterleave, duration : 40 ms (1.00 video frame)Interleave, preload duration : 500 ms

Скриншоты

Other forum [Profile] [PM]
Display posts from previous:    
Reply to topic

The time now is: Today 16:08

All times are GMT + 3 Hours



You cannot post new topics in this forum
You cannot reply to topics in this forum
You cannot edit your posts in this forum
You cannot delete your posts in this forum
You cannot vote in polls in this forum
You cannot attach files in this forum
You cannot download files in this forum