Today is a free download without charge Download

Discovery: Особое Меню От Беара Гриллса / Fine Dining With Bear Grylls (2012) HDTVRip [H.264/720p-LQ]

Reply to topic
 
Author
Message

UndegraundMen ®

Longevity: 7 years 7 months

Posts: 25145

Торрент-статистика

Post 01-Jan-2014 23:01

[Quote]

Discovery: Особое Меню От Беара Гриллса / Fine Dining With Bear Grylls (2012) HDTVRip [H.264/720p-LQ]- Страна: Великобритания
Телекомпания: Discovery
Год выпуска: 2012
Жанр: Документальный, приключения
Описание: Сквозь метель и жгучую жару, пустыни и горы... чего только не пережил Беар Гриллс. В данной серии он познакомит Вас, с необычной едой и напитками, которые в экстримальных условиях помогут выжить и приглашает Вас получить "Истинное кулинарное удовольствие"
Актеры: Беар Гриллс
Продолжительность: 00:43:59
Качество видео: HDTVRip [720p-LQ]
Перевод: Одноголосый закадровый, профессиональный
Видеокодек: MPEG-4 AVC/H.264
Битрейт видео: ~3352 Кбит/сек
Размер кадра: 1280x720 (16:9)
Аудио:
1. Русский, AC3, 2.0 ch, 192 Кбит/сек, 48,0 КГц
2. English, AC3, 5.1 ch, Front: LCR, Side: L R, LFE, 384 Кбит/сек, 48,0 КГц (Оригинал)

MediaInfo

Код:
Общее
Уникальный идентификатор                 : 221269438823008297931553395703535087235 (0xA676F19CEC30AFD48427CCB541BBAE83)
Полное имя                               : Особое Меню От Беара Гриллса. Fine Dining With Bear Grylls.2012.mkv
Формат                                   : Matroska
Версия формата                           : Version 4 / Version 2
Размер файла                             : 1,23 Гбайт
Продолжительность                        : 43 м.
Общий поток                              : 4008 Кбит/сек
Название фильма                          : Особое Меню От Беара Гриллса. Fine Dining With Bear Grylls [720p] by SOFCJ [ .org]
Дата кодирования                         : UTC 2010-02-22 21:41:31
Программа кодирования                    : mkvmerge v5.9.0 ('On The Loose') built on Dec  9 2012 15:37:01
Библиотека кодирования                   : libebml v1.3.0 + libmatroska v1.4.0
Видео
Идентификатор                            : 1
Формат                                   : AVC
Формат/Информация                        : Advanced Video Codec
Профиль формата                          : [url=mailto:[email protected]][email protected][/url]
Параметр CABAC формата                   : Да
Параметр ReFrames формата                : 5 кадров
Идентификатор кодека                     : V_MPEG4/ISO/AVC
Продолжительность                        : 43 м.
Битрейт                                  : 3352 Кбит/сек
Ширина                                   : 1280 пикселей
Высота                                   : 720 пикселей
Соотношение сторон                       : 16:9
Режим частоты кадров                     : Постоянный
Частота кадров                           : 25,000 кадров/сек
Цветовое пространство                    : YUV
Субдискретизация насыщенности            : 4:2:0
Битовая глубина                          : 8 бит
Тип развёртки                            : Прогрессивная
Бит/(Пиксели*Кадры)                      : 0.145
Размер потока                            : 1,03 Гбайт (84%)
Default                                  : Да
Forced                                   : Нет
Аудио #1
Идентификатор                            : 2
Формат                                   : AC-3
Формат/Информация                        : Audio Coding 3
Расширение режима                        : CM (complete main)
Параметр Endianness формата              : Big
Идентификатор кодека                     : A_AC3
Продолжительность                        : 43 м.
Вид битрейта                             : Постоянный
Битрейт                                  : 192 Кбит/сек
Каналы                                   : 2 канала
Расположение каналов                     : Front: L R
Частота                                  : 48,0 КГц
Битовая глубина                          : 16 бит
Метод сжатия                             : С потерями
Размер потока                            : 60,4 Мбайт (5%)
Язык                                     : Russian
Default                                  : Нет
Forced                                   : Нет
Аудио #2
Идентификатор                            : 3
Формат                                   : AC-3
Формат/Информация                        : Audio Coding 3
Расширение режима                        : CM (complete main)
Параметр Endianness формата              : Big
Идентификатор кодека                     : A_AC3
Продолжительность                        : 43 м.
Вид битрейта                             : Постоянный
Битрейт                                  : 384 Кбит/сек
Каналы                                   : 6 каналов
Расположение каналов                     : Front: L C R, Side: L R, LFE
Частота                                  : 48,0 КГц
Битовая глубина                          : 16 бит
Метод сжатия                             : С потерями
Размер потока                            : 121 Мбайт (10%)
Язык                                     : English
Default                                  : Да
Forced                                   : Нет
Скриншоты:                    Время раздачи: 24/7. До первых 5 скачавших.
Other forum [Profile] [PM]
Display posts from previous:    
Reply to topic

The time now is: Today 11:33

All times are GMT + 3 Hours



You cannot post new topics in this forum
You cannot reply to topics in this forum
You cannot edit your posts in this forum
You cannot delete your posts in this forum
You cannot vote in polls in this forum
You cannot attach files in this forum
You cannot download files in this forum