Сегодня идет свободное скачивание без начисления Download

Сокровище нации: Дилогия / National Treasure: Duology (Джон Тёртелтауб) [2004, 2007, боевик, триллер, детектив, приключения, BDRip-AVС] DUB+MVO+DVO+AVO

Ответить на тему
 
Автор
Сообщение

O.S.A. ®

Пол:

Стаж: 5 лет

Сообщений: 4296

Откуда: СССР

Торрент-статистика

Пост 01-Янв-2014 16:01

[Цитировать]

--Сокровище нации: Дилогия / National Treasure: Duology-- Год выхода: 2004, 2007
Страна: США
Студия: Jerry Bruckheimer Films, Junction Entertainment, Saturn Films, Walt Disney Pictures, NT2 Productions
Жанр: боевик, триллер, детектив, приключения
Продолжительность: 02:11:06 + 02:04:32
Перевод: Профессиональный (дублированный) + Профессиональный (многоголосый) + Профессиональный (двухголосый) + Авторский (одноголосый)-Режиссер: Джон Тёртелтауб-В ролях: Николас Кейдж, Дайан Крюгер, Джастин Барта, Шон Бин, Джон Войт, Харви Кейтель, Кристофер Пламмер, Дэвид Дайан Фишер, Стюарт Финлэй-МакЛеннан, Олег Тактаров, Стефен А. Поуп, Энни Париссе, Марк Пеллегрино, Армандо Риско, Эрик Кинг-О фильме: Приключения охотников за сокровищами, потерянные нацией, привлекают многих, но есть те, кто решился их найти. И это Бен Гейтс со своими друзьями. Интриги, провалы, предательства — на каждом шагу. Но это их не останавливает!
Сокровище нации: Современные охотники за сокровищами во главе с Беном Франклином Гейтсом узнают старинную легенду о сокровище, спрятанном еще отцами-основателями американского государства Джорджем Вашингтоном, Бенджамином Франклином и Томасом Джефферсоном. Узнать тайну клада можно с помощью Декларации Независимости США, в которой зашифрована разгадка. Но помимо разгадывания изощренной головоломки, нашим героям предстоит сразиться с любителями легкой наживы, жаждущим погреть руки на достоянии республики...
Сокровище нации: Книга Тайн: Охотник за сокровищами Бен Гейтс, вооружившись поддержкой любимой женщины, верного друга Райли, а также своих родителей, отправляется на поиски затерянного золотого города. Только пройдя сквозь череду невероятных и увлекательных приключений, Бену удастся очистить имя своего предка от обвинений в убийстве Авраама Линкольна. Но не все так просто - параллельные поиски города ведет и некий Митч Уилкинсон, готовый на все ради достижения цели.-- - --Качество: BDRip-AVC
Формат: MKV
Видео кодек: H.264
Аудио кодек: АС3
Видео: 1024x426 (2.40:1), 23.976 fps, MPEG-4 AVC, ~2582 kbps avg + 2526 kbps avg
Субтитры: русские (2 вида), украинские (2 вида), английские (встроенные, отключаемые)

Звук

Сокровище нации
Аудио:
• №1: Русский (AC3, 6, ch, 384 Кбит/с) Дублированный [Blu-ray EUR]
• №2: Русский (AC3, 6 ch, 384 Кбит/с) Профессиональный двухголосый [Tycoon-Studio]
• №3: Русский (AC3, 6 ch, 384 Кбит/с) Профессиональный двухголосый [Петр Гланц, Инна Королёва]
• №4: Русский (AC3, 6 ch, 384 Кбит/с) Авторский одноголосый [Андрей Гаврилов]
• №5: Русский (AC3, 6 ch, 384 Кбит/с) Авторский одноголосый [Владимир Королев]
• №6: Украинский (AC3, 2 ch, 192 Кбит/с) Профессиональный многоголосый [1+1]
• №7: Английский (AC3 6 ch, 384 Кбит/с)-Сокровище нации: Книга тайн
Аудио:
• №1: Русский (AC3, 6, ch, 384 Кбит/с) Дублированный [Blu-ray EUR]
• №2: Русский (AC3, 6 ch, 384 Кбит/с) Авторский одноголосый [Андрей Гаврилов]
• №3: Русский (AC3, 6 ch, 384 Кбит/с) Авторский одноголосый [Владимир Королев]
• №4: Украинский (AC3, 6 ch, 384 Кбит/с) Дублированный
• №5: Английский (AC3, 6 ch, 384 Кбит/с)

x264 & Media Info - Сокровище нации


------------------------------------------------------------------------
x264 [info]: frame I:1932 Avg QP:15.71 size: 81968
x264 [info]: frame P:43337 Avg QP:18.05 size: 26007
x264 [info]: frame B:143290 Avg QP:19.71 size: 8690
------------------------------------------------------------------------
Полное имя : National.Treasure.2004.x264.BDRip.(AVC).0ptimus.mkv
Формат : Matroska
Версия формата : Version 4 / Version 2
Размер файла : 4,65 Гбайт
Продолжительность : 2 ч. 11 м.
Общий поток : 5073 Кбит/сек
Название фильма : Сокровище нации | National Treasure [2004] -=BDRip (AVC) by 0ptimus=-
Дата кодирования : UTC 2013-09-26 11:58:20
Программа кодирования : mkvmerge v6.1.0 ('Old Devil') built on Mar 2 2013 14:32:37
Библиотека кодирования : libebml v1.3.0 + libmatroska v1.4.0
Видео
Идентификатор : 1
Формат : AVC
Формат/Информация : Advanced Video Codec
Профиль формата : [email protected]
Параметр CABAC формата : Да
Параметр ReFrames формата : 9 кадров
Идентификатор кодека : V_MPEG4/ISO/AVC
Продолжительность : 2 ч. 11 м.
Битрейт : 2582 Кбит/сек
Ширина : 1024 пикселя
Высота : 426 пикселей
Соотношение сторон : 2,40:1
Частота кадров : 23,976 кадра/сек
Цветовое пространство : YUV
Субдискретизация насыщенности : 4:2:0
Битовая глубина : 8 бит
Тип развёртки : Прогрессивная
Бит/(Пиксели*Кадры) : 0.247
Размер потока : 2,27 Гбайт (49%)
Заголовок : Rip by 0ptimus
Библиотека кодирования : x264 core 133 r2334 a3ac64b
Настройки программы : cabac=1 / ref=9 / deblock=1:-3:-3 / analyse=0x3:0x113 / me=umh / subme=11 / psy=1 / psy_rd=1.00:0.20 / mixed_ref=1 / me_range=48 / chroma_me=1 / trellis=2 / 8x8dct=1 / cqm=0 / deadzone=21,11 / fast_pskip=0 / chroma_qp_offset=-3 / threads=4 / lookahead_threads=1 / sliced_threads=0 / nr=0 / decimate=0 / interlaced=0 / bluray_compat=0 / constrained_intra=0 / bframes=11 / b_pyramid=2 / b_adapt=2 / b_bias=0 / direct=3 / weightb=1 / open_gop=0 / weightp=2 / keyint=240 / keyint_min=23 / scenecut=40 / intra_refresh=0 / rc_lookahead=40 / rc=2pass / mbtree=0 / bitrate=2582 / ratetol=1.0 / qcomp=0.60 / qpmin=0 / qpmax=69 / qpstep=4 / cplxblur=20.0 / qblur=0.5 / vbv_maxrate=50000 / vbv_bufsize=50000 / nal_hrd=none / ip_ratio=1.40 / pb_ratio=1.30 / aq=1:1.00
Язык : English
Аудио #1
Идентификатор : 2
Формат : AC-3
Формат/Информация : Audio Coding 3
Расширение режима : CM (complete main)
Идентификатор кодека : A_AC3
Продолжительность : 2 ч. 11 м.
Вид битрейта : Постоянный
Битрейт : 384 Кбит/сек
Каналы : 6 каналов
Расположение каналов : Front: L C R, Side: L R, LFE
Частота : 48,0 КГц
Битовая глубина : 16 бит
Метод сжатия : С потерями
Размер потока : 360 Мбайт (8%)
Заголовок : Дублированный [BD EUR] AC3 5.1 @ 384 kbps
Язык : Russian
Аудио #2
Идентификатор : 3
Формат : AC-3
Формат/Информация : Audio Coding 3
Расширение режима : CM (complete main)
Идентификатор кодека : A_AC3
Продолжительность : 2 ч. 11 м.
Вид битрейта : Постоянный
Битрейт : 384 Кбит/сек
Каналы : 6 каналов
Расположение каналов : Front: L C R, Side: L R, LFE
Частота : 48,0 КГц
Битовая глубина : 16 бит
Метод сжатия : С потерями
Размер потока : 360 Мбайт (8%)
Заголовок : Двухголосый закадровый [Tycoon-Studio] AC3 5.1 @ 384 kbps
Язык : Russian
Аудио #3
Идентификатор : 4
Формат : AC-3
Формат/Информация : Audio Coding 3
Расширение режима : CM (complete main)
Идентификатор кодека : A_AC3
Продолжительность : 2 ч. 11 м.
Вид битрейта : Постоянный
Битрейт : 384 Кбит/сек
Каналы : 6 каналов
Расположение каналов : Front: L C R, Side: L R, LFE
Частота : 48,0 КГц
Битовая глубина : 16 бит
Метод сжатия : С потерями
Размер потока : 360 Мбайт (8%)
Заголовок : Двухголосый закадровый [Петр Гланц и Инна Королева] AC3 5.1 @ 384 kbps
Язык : Russian
Аудио #4
Идентификатор : 5
Формат : AC-3
Формат/Информация : Audio Coding 3
Расширение режима : CM (complete main)
Идентификатор кодека : A_AC3
Продолжительность : 2 ч. 11 м.
Вид битрейта : Постоянный
Битрейт : 384 Кбит/сек
Каналы : 6 каналов
Расположение каналов : Front: L C R, Side: L R, LFE
Частота : 48,0 КГц
Битовая глубина : 16 бит
Метод сжатия : С потерями
Размер потока : 360 Мбайт (8%)
Заголовок : Авторский [Андрей Гаврилов] AC3 5.1 @ 384 kbps
Язык : Russian
Аудио #5
Идентификатор : 6
Формат : AC-3
Формат/Информация : Audio Coding 3
Расширение режима : CM (complete main)
Идентификатор кодека : A_AC3
Продолжительность : 2 ч. 11 м.
Вид битрейта : Постоянный
Битрейт : 384 Кбит/сек
Каналы : 6 каналов
Расположение каналов : Front: L C R, Side: L R, LFE
Частота : 48,0 КГц
Битовая глубина : 16 бит
Метод сжатия : С потерями
Размер потока : 360 Мбайт (8%)
Заголовок : Авторский [Владимир Королев] AC3 5.1 @ 384 kbps
Язык : Russian
Аудио #6
Идентификатор : 7
Формат : AC-3
Формат/Информация : Audio Coding 3
Расширение режима : CM (complete main)
Идентификатор кодека : A_AC3
Продолжительность : 2 ч. 11 м.
Вид битрейта : Постоянный
Битрейт : 192 Кбит/сек
Каналы : 2 канала
Расположение каналов : Front: L R
Частота : 48,0 КГц
Битовая глубина : 16 бит
Метод сжатия : С потерями
Размер потока : 180 Мбайт (4%)
Заголовок : Многоголосый закадровый [1+1] AC3 2.0 @ 192 kbps
Язык : Ukrainian
Аудио #7
Идентификатор : 8
Формат : AC-3
Формат/Информация : Audio Coding 3
Расширение режима : CM (complete main)
Идентификатор кодека : A_AC3
Продолжительность : 2 ч. 11 м.
Вид битрейта : Постоянный
Битрейт : 384 Кбит/сек
Каналы : 6 каналов
Расположение каналов : Front: L C R, Side: L R, LFE
Частота : 48,0 КГц
Битовая глубина : 16 бит
Метод сжатия : С потерями
Размер потока : 360 Мбайт (8%)
Заголовок : AC3 5.1 @ 384 kbps
Язык : English
Текст #1
Идентификатор : 9
Формат : UTF-8
Идентификатор кодека : S_TEXT/UTF8
Идентификатор кодека/Информация : UTF-8 Plain Text
Заголовок : Форсированные
Язык : Russian
Текст #2
Идентификатор : 10
Формат : UTF-8
Идентификатор кодека : S_TEXT/UTF8
Идентификатор кодека/Информация : UTF-8 Plain Text
Язык : Russian
Текст #3
Идентификатор : 11
Формат : UTF-8
Идентификатор кодека : S_TEXT/UTF8
Идентификатор кодека/Информация : UTF-8 Plain Text
Язык : Ukrainian
Текст #4
Идентификатор : 12
Формат : UTF-8
Идентификатор кодека : S_TEXT/UTF8
Идентификатор кодека/Информация : UTF-8 Plain Text
Язык : English
Меню
00:00:00.000 : en: The Legend of the Treasure
00:06:36.229 : en: The Charlotte
00:22:20.339 : en: Meeting with Dr. Chase
00:28:52.063 : en: Making a Plan
00:31:18.126 : en: The Setup
00:35:47.311 : en: The Gala
00:45:55.794 : en: Getting Found Out
00:54:28.139 : en: We Need Those Letters
01:01:07.872 : en: Еxаmining the Dоcument
01:07:02.852 : en: Philadelphia
01:16:54.192 : en: The Ocular Device
01:24:06.041 : en: Ian Has the Map
01:28:21.254 : en: The Uss Intrepid
01:34:20.404 : en: Making a Deal with Ian
01:38:31.572 : en: Beneath Parkington Lane
01:49:42.158 : en: Ian Leaves Them Behind
01:53:25.965 : en: Could It Really Be That Simple?
01:57:22.035 : en: Somebody Has to Go to Prison
02:01:42.795 : en: End Credits

x264 & Media Info - Сокровище нации: Книга тайн


------------------------------------------------------------------------
x264 [info]: frame I:2021 Avg QP:16.69 size: 75960
x264 [info]: frame P:42299 Avg QP:19.68 size: 25250
x264 [info]: frame B:134840 Avg QP:21.44 size: 8438
------------------------------------------------------------------------
Полное имя : National.Treasure.Book.of.Secrets.2007.x264.BDRip.(AVC).0ptimus.mkv
Формат : Matroska
Версия формата : Version 4 / Version 2
Размер файла : 3,87 Гбайт
Продолжительность : 2 ч. 4 м.
Общий поток : 4449 Кбит/сек
Название фильма : Сокровище Нации: Книга Тайн | National Treasure: Book of Secrets [2007] -=BDRip (AVC) by 0ptimus=-
Дата кодирования : UTC 2013-09-28 15:55:42
Программа кодирования : mkvmerge v6.1.0 ('Old Devil') built on Mar 2 2013 14:32:37
Библиотека кодирования : libebml v1.3.0 + libmatroska v1.4.0
Видео
Идентификатор : 1
Формат : AVC
Формат/Информация : Advanced Video Codec
Профиль формата : [email protected]
Параметр CABAC формата : Да
Параметр ReFrames формата : 9 кадров
Идентификатор кодека : V_MPEG4/ISO/AVC
Продолжительность : 2 ч. 4 м.
Битрейт : 2526 Кбит/сек
Ширина : 1024 пикселя
Высота : 426 пикселей
Соотношение сторон : 2,40:1
Частота кадров : 23,976 кадра/сек
Цветовое пространство : YUV
Субдискретизация насыщенности : 4:2:0
Битовая глубина : 8 бит
Тип развёртки : Прогрессивная
Бит/(Пиксели*Кадры) : 0.242
Размер потока : 2,12 Гбайт (55%)
Заголовок : Rip by 0ptimus
Библиотека кодирования : x264 core 133 r2334 a3ac64b
Настройки программы : cabac=1 / ref=9 / deblock=1:-3:-3 / analyse=0x3:0x113 / me=umh / subme=11 / psy=1 / psy_rd=1.00:0.20 / mixed_ref=1 / me_range=48 / chroma_me=1 / trellis=2 / 8x8dct=1 / cqm=0 / deadzone=21,11 / fast_pskip=0 / chroma_qp_offset=-3 / threads=4 / lookahead_threads=1 / sliced_threads=0 / nr=0 / decimate=0 / interlaced=0 / bluray_compat=0 / constrained_intra=0 / bframes=10 / b_pyramid=2 / b_adapt=2 / b_bias=0 / direct=3 / weightb=1 / open_gop=0 / weightp=2 / keyint=240 / keyint_min=23 / scenecut=40 / intra_refresh=0 / rc_lookahead=40 / rc=2pass / mbtree=0 / bitrate=2526 / ratetol=1.0 / qcomp=0.60 / qpmin=0 / qpmax=69 / qpstep=4 / cplxblur=20.0 / qblur=0.5 / vbv_maxrate=50000 / vbv_bufsize=50000 / nal_hrd=none / ip_ratio=1.40 / pb_ratio=1.30 / aq=1:1.00
Язык : English
Аудио #1
Идентификатор : 2
Формат : AC-3
Формат/Информация : Audio Coding 3
Расширение режима : CM (complete main)
Идентификатор кодека : A_AC3
Продолжительность : 2 ч. 4 м.
Вид битрейта : Постоянный
Битрейт : 384 Кбит/сек
Каналы : 6 каналов
Расположение каналов : Front: L C R, Side: L R, LFE
Частота : 48,0 КГц
Битовая глубина : 16 бит
Метод сжатия : С потерями
Размер потока : 342 Мбайт (9%)
Заголовок : Дублированный [BD EUR] AC3 5.1 @ 384 kbps
Язык : Russian
Аудио #2
Идентификатор : 3
Формат : AC-3
Формат/Информация : Audio Coding 3
Расширение режима : CM (complete main)
Идентификатор кодека : A_AC3
Продолжительность : 2 ч. 4 м.
Вид битрейта : Постоянный
Битрейт : 384 Кбит/сек
Каналы : 6 каналов
Расположение каналов : Front: L C R, Side: L R, LFE
Частота : 48,0 КГц
Битовая глубина : 16 бит
Метод сжатия : С потерями
Размер потока : 342 Мбайт (9%)
Заголовок : Авторский [Андрей Гаврилов] AC3 5.1 @ 384 kbps
Язык : Russian
Аудио #3
Идентификатор : 4
Формат : AC-3
Формат/Информация : Audio Coding 3
Расширение режима : CM (complete main)
Идентификатор кодека : A_AC3
Продолжительность : 2 ч. 4 м.
Вид битрейта : Постоянный
Битрейт : 384 Кбит/сек
Каналы : 6 каналов
Расположение каналов : Front: L C R, Side: L R, LFE
Частота : 48,0 КГц
Битовая глубина : 16 бит
Метод сжатия : С потерями
Размер потока : 342 Мбайт (9%)
Заголовок : Авторский [Владимир Королев] AC3 5.1 @ 384 kbps
Язык : Russian
Аудио #4
Идентификатор : 5
Формат : AC-3
Формат/Информация : Audio Coding 3
Расширение режима : CM (complete main)
Идентификатор кодека : A_AC3
Продолжительность : 2 ч. 4 м.
Вид битрейта : Постоянный
Битрейт : 384 Кбит/сек
Каналы : 6 каналов
Расположение каналов : Front: L C R, Side: L R, LFE
Частота : 48,0 КГц
Битовая глубина : 16 бит
Метод сжатия : С потерями
Размер потока : 342 Мбайт (9%)
Заголовок : Дублированный AC3 5.1 @ 384 kbps
Язык : Ukrainian
Аудио #5
Идентификатор : 6
Формат : AC-3
Формат/Информация : Audio Coding 3
Расширение режима : CM (complete main)
Идентификатор кодека : A_AC3
Продолжительность : 2 ч. 4 м.
Вид битрейта : Постоянный
Битрейт : 384 Кбит/сек
Каналы : 6 каналов
Расположение каналов : Front: L C R, Side: L R, LFE
Частота : 48,0 КГц
Битовая глубина : 16 бит
Метод сжатия : С потерями
Размер потока : 342 Мбайт (9%)
Заголовок : AC3 5.1 @ 384 kbps
Язык : English
Текст #1
Идентификатор : 7
Формат : UTF-8
Идентификатор кодека : S_TEXT/UTF8
Идентификатор кодека/Информация : UTF-8 Plain Text
Заголовок : Форсированные
Язык : Russian
Текст #2
Идентификатор : 8
Формат : UTF-8
Идентификатор кодека : S_TEXT/UTF8
Идентификатор кодека/Информация : UTF-8 Plain Text
Язык : Russian
Текст #3
Идентификатор : 9
Формат : UTF-8
Идентификатор кодека : S_TEXT/UTF8
Идентификатор кодека/Информация : UTF-8 Plain Text
Заголовок : Форсированные
Язык : Ukrainian
Текст #4
Идентификатор : 10
Формат : UTF-8
Идентификатор кодека : S_TEXT/UTF8
Идентификатор кодека/Информация : UTF-8 Plain Text
Язык : Ukrainian
Текст #5
Идентификатор : 11
Формат : UTF-8
Идентификатор кодека : S_TEXT/UTF8
Идентификатор кодека/Информация : UTF-8 Plain Text
Язык : English
Меню
00:00:00.000 : en: The War Is Over
00:04:59.340 : en: The Missing Page
00:08:27.215 : en: Breaking In
00:16:55.723 : en: The Debt That All Men Pay
00:22:01.945 : en: The Lady's Clue
00:26:03.395 : en: Making A Scene At The Palace
00:36:47.038 : en: The Streets Of London
00:43:02.913 : en: Meeting Dr. Appleton
00:50:14.011 : en: A Date At The White House
00:55:27.907 : en: Riley's Theory
01:00:01.389 : en: Happy Birthday, Mr. President
01:11:22.987 : en: The Book Of Secrets
01:20:14.017 : en: Another Translation
01:24:42.744 : en: An Island Of Stone
01:30:41.269 : en: Only One Way Out
01:40:07.334 : en: The City Of Gold
01:47:17.889 : en: Escaping Cibola
01:57:20.533 : en: End Credits

Скриншоты

Сокровище нации
         ---Сокровище нации: Книга тайн
         
-- --

_________________

===============================
IGNOSCITO SAEPE ALTERI, NUNQUAM TIBI
Вне форума [Профиль] [ЛС]
Показать сообщения:    
Ответить на тему

Текущее время: Сегодня 23:16

Часовой пояс: GMT + 3



Вы не можете начинать темы
Вы не можете отвечать на сообщения
Вы не можете редактировать свои сообщения
Вы не можете удалять свои сообщения
Вы не можете голосовать в опросах
Вы не можете прикреплять файлы к сообщениям
Вы не можете скачивать файлы