Today is a free download without charge Download

Discovery: Через червоточину с Морганом Фрименом (Сезон №4, серия №3) / Through The Wormhole with Morgan Freeman (2013) HDTVRip

Reply to topic
 
Author
Message

UndegraundMen ®

Longevity: 7 years 7 months

Posts: 25145

Торрент-статистика

Post 31-Dec-2013 16:41

[Quote]

Discovery: Через червоточину с Морганом Фрименом (Сезон №4, серия №3) / Through The Wormhole with Morgan Freeman (2013) HDTVRip - Режиссер / Телекомпания: SCI HD & Discovery
Русское название: Через червоточину с Морганом Фрименом
Оригинальное название: Through The Wormhole with Morgan Freeman
Год выпуска: 2013
Жанр: Документальный, научно-познавательный, исследования, гипотезы
Выпущено: The Incubator, Revelations Entertainment, Discovery Communications, Science Channel
Описание:
Сериал "Через Червоточину" с ведущим Морганом Фрименом исследует самые глубокие тайны существования - вопросы, которые всегда озадачивали человечество. Из чего мы сделаны? Что было перед началом всего? Действительно ли мы одиноки во вселенной? Есть ли создатель? Эти вопросы были обдуманы самыми изящными умами человеческого рода. Теперь наука приблизилась к сути, в область, где твердые факты и свидетельства могут быть в состоянии предоставить нам ответы вместо философских теорий.
"Через Червоточину" примирит самые яркие умы и лучшие идеи с самых передних краев наук - астрофизики, астробиологии, квантовой механики, теории струн, и более - чтобы показать экстраординарную правду о нашей Вселенной.
В выпуске: 03. Сможем ли мы пережить смерть солнца / Can We Survive the Death of the Sun
Режиссёр: Geoffrey Sharp
Ведущий: Морган Фримен
Язык субтитров: Отсутствует
Перевод: Одноголосый закадровый
Продолжительность: ~ 00:41:50
Видеокодек: XVID
Битрейт видео: ~1500 kb/s
Размер кадра: 720 x 400
Качество видео: HDTVRip
Аудиокодек: MP3, 2ch.
Битрейт аудио: 128 kb/s

MediaInfo

Формат : AVI
Формат/Информация : Audio Video Interleave
Размер файла : 488 Мбайт
Продолжительность : 41 м.
Общий поток : 1632 Кбит/сек
Программа кодирования : TMPGEnc Video Mastering Works 5 Version. 5.0.6.38
Библиотека кодирования : TMPGEnc Video Mastering Works 5 Version. 5.0.6.38
Видео
Идентификатор : 0
Формат : MPEG-4 Visual
Профиль формата : Advanced [email protected]
Параметр BVOP формата : 2
Параметр QPel формата : Нет
Параметр GMC формата : Без точки перехода
Параметр матрицы формата : Default (H.263)
Режим смешивания : Сжатый битовый поток
Идентификатор кодека : XVID
Идентификатор кодека/Подсказка : XviD
Продолжительность : 41 м.
Битрейт : 1497 Кбит/сек
Ширина : 720 пикселей
Высота : 400 пикселей
Соотношение сторон : 16:9
Частота кадров : 23,976 кадра/сек
Цветовое пространство : YUV
Субдискретизация насыщенности : 4:2:0
Битовая глубина : 8 бит
Тип развёртки : Прогрессивная
Метод сжатия : С потерями
Бит/(Пиксели*Кадры) : 0.217
Размер потока : 448 Мбайт (92%)
Библиотека кодирования : XviD 64
Аудио
Идентификатор : 1
Формат : MPEG Audio
Версия формата : Version 1
Профиль формата : Layer 3
Режим : Joint stereo
Расширение режима : MS Stereo
Идентификатор кодека : 55
Идентификатор кодека/Подсказка : MP3
Продолжительность : 41 м.
Вид битрейта : Постоянный
Битрейт : 128 Кбит/сек
Каналы : 2 канала
Частота : 48,0 КГц
Метод сжатия : С потерями
Размер потока : 38,3 Мбайт (8%)
Выравнивание : Соединение по промежуткам
Продолжительность промежутка : 250 мс. (5,99 видеокадров)
Время предзагрузки промежутка : 432 мс.
Скриншоты:          Время раздачи: 24/7. До первых 5 скачавших.
Other forum [Profile] [PM]
Display posts from previous:    
Reply to topic

The time now is: Today 23:33

All times are GMT + 3 Hours



You cannot post new topics in this forum
You cannot reply to topics in this forum
You cannot edit your posts in this forum
You cannot delete your posts in this forum
You cannot vote in polls in this forum
You cannot attach files in this forum
You cannot download files in this forum