Today is a free download without charge Download

Discovery: Через червоточину с Морганом Фрименом / Through the Wormhole with Morgan Freeman (2013) [сезон 4 серии 1-3 из 10] HDTVRip 720p

Reply to topic
 
Author
Message

UndegraundMen ®

Longevity: 7 years 7 months

Posts: 25145

Торрент-статистика

Post 30-Dec-2013 18:49

[Quote]

Discovery: Через червоточину с Морганом Фрименом / Through the Wormhole with Morgan Freeman (2013) [сезон 4 серии 1-3 из 10] HDTVRip 720p - Режиссер / Телекомпания: SCI HD & Discovery
Русское название: Сквозь червоточину с Морганом Фрименом
Оригинальное название: Through The Wormhole with Morgan Freeman
Год выпуска: 2013
Жанр: Документальный, научно-познавательный, исследования, гипотезы
Выпущено: The Incubator, Revelations Entertainment, Discovery Communications, Science Channel
Описание:
Сериал "Через Червоточину" с ведущим Морганом Фрименом исследует самые глубокие тайны существования - вопросы, которые всегда озадачивали человечество. Из чего мы сделаны? Что было перед началом всего? Действительно ли мы одиноки во вселенной? Есть ли создатель? Эти вопросы были обдуманы самыми изящными умами человеческого рода. Теперь наука приблизилась к сути, в область, где твердые факты и свидетельства могут быть в состоянии предоставить нам ответы вместо философских теорий.
"Через Червоточину" примирит самые яркие умы и лучшие идеи с самых передних краев наук - астрофизики, астробиологии, квантовой механики, теории струн, и более - чтобы показать экстраординарную правду о нашей Вселенной.
Формат видео: AVC
Битрейт видео: ~2740 Kbps
Размер кадра: 1280x720
Качество видео: HDTVRip 720p
Аудиокодек: MP3, 2ch.
Битрейт аудио: 128 kb/s

Список серий:

01. Существует ли "Частица Бога" / Is There a God Particle
02. Когда начинается жизнь / When Does Life Begin
03. Сможем ли мы пережить смерть солнца / Can We Survive the Death of the Sun

04. Как мыслят пришельцы? / How Do Aliens Think
05. Исчезнет ли секс в будущем? / Will Sex Become Extinct
06. Возможно ли "взломать" наш разум? / Can Our Minds Be Hacked
07. Роботы это будущее эволюции человека / Are Robots the Future of Human Evolution
08. Реальна ли реальность? / Is Reality Real
09. Есть ли у нас свобода воли? / Do We Have Free Will
10. Создал ли Бог эволюцию? / Did God Create Evolution

MediaInfo:

Format : Matroska
Format version : Version 4 / Version 2
File size : 895 MiB
Duration : 42mn 44s
Overall bit rate mode : Constant
Overall bit rate : 2 926 Kbps
Encoded date : UTC 2013-12-27 20:33:27
Writing application : mkvmerge v6.6.0 ('The Edge Of The In Between') built on Dec 1 2013 17:55:00
Writing library : libebml v1.3.0 + libmatroska v1.4.1
Video
ID : 1
Format : AVC
Format/Info : Advanced Video Codec
Format profile : [url=mailto:[email protected]][email protected][/url]
Format settings, CABAC : Yes
Format settings, ReFrames : 3 frames
Codec ID : V_MPEG4/ISO/AVC
Duration : 42mn 44s
Bit rate mode : Constant
Bit rate : 2 740 Kbps
Nominal bit rate : 3 000 Kbps / 3 000 Kbps
Width : 1 280 pixels
Height : 720 pixels
Display aspect ratio : 16:9
Frame rate mode : Constant
Frame rate : 23.976 fps
Standard : NTSC
Color space : YUV
Chroma subsampling : 4:2:0
Bit depth : 8 bits
Scan type : Progressive
Bits/(Pixel*Frame) : 0.124
Stream size : 838 MiB (94%)
Writing library : x264 core 114
Encoding settings : cabac=1 / ref=3 / deblock=1:0:0 / analyse=0x3:0x113 / me=hex / subme=7 / psy=1 / psy_rd=1.00:0.00 / mixed_ref=1 / me_range=16 / chroma_me=1 / trellis=1 / 8x8dct=1 / cqm=2 / deadzone=21,11 / fast_pskip=1 / chroma_qp_offset=-2 / threads=6 / sliced_threads=0 / slices=1 / nr=0 / decimate=1 / interlaced=0 / constrained_intra=0 / bframes=3 / b_pyramid=0 / b_adapt=1 / b_bias=0 / direct=1 / weightb=1 / open_gop=0 / weightp=2 / keyint=250 / keyint_min=23 / scenecut=40 / intra_refresh=0 / rc_lookahead=40 / rc=cbr / mbtree=1 / bitrate=3000 / ratetol=1.0 / qcomp=0.60 / qpmin=3 / qpmax=69 / qpstep=4 / vbv_maxrate=3000 / vbv_bufsize=2998 / nal_hrd=cbr / ip_ratio=1.40 / aq=1:1.00
Default : Yes
Forced : No
Color primaries : BT.709
Transfer characteristics : BT.709
Matrix coefficients : BT.709
Audio
ID : 2
Format : MPEG Audio
Format version : Version 1
Format profile : Layer 3
Mode : Joint stereo
Mode extension : MS Stereo
Codec ID : A_MPEG/L3
Codec ID/Hint : MP3
Duration : 42mn 44s
Bit rate mode : Constant
Bit rate : 128 Kbps
Channel(s) : 2 channels
Sampling rate : 48.0 KHz
Compression mode : Lossy
Stream size : 39.1 MiB (4%)
Writing library : LAME3.99
Encoding settings : -m j -V 4 -q 2 -lowpass 17 -b 128
Default : Yes
Forced : No

Внимание! Раздача ведётся путём добавления новых выпусков:

Не забудьте [url=/forum/subscribe.php?attach_id=643116]подписаться на изменения[/url]!
При каждом добавлении создаётся новый торрент. Чтобы начать докачку нового выпуска, пользователям необходимо сделать следующее:
- остановить скачивание,
- удалить старый торрент у себя из клиента (старые серии удалять не надо),
- скачать новый торрент и запустить его у себя в клиенте вместо старого, при этом указать клиенту путь в старую папку куда и должно происходить скачивание новых выпусков.
Ваш клиент при этом должен произвести хеширование (проверку) старой папки (если не производит сам - помогите ему сделать это). В результате он будет докачивать только те выпуски, которых у Вас ещё нет. Старые выпуски при этом не удаляются, а продолжают раздаваться!
Eсли Вы уже удалили старые выпуски, то предотвратить их повторную закачку можно, сняв галочки в соответствующих местах при запуске нового торрента. По возможности, желательно не удалять старые выпуски как можно дольше, чтобы релизёр не только продолжал раздавать старые выпуски, но и смог сконцентрироваться на новых.
Скриншоты:              Время раздачи: 24/7/365
Other forum [Profile] [PM]
Display posts from previous:    
Reply to topic

The time now is: Today 21:24

All times are GMT + 3 Hours



You cannot post new topics in this forum
You cannot reply to topics in this forum
You cannot edit your posts in this forum
You cannot delete your posts in this forum
You cannot vote in polls in this forum
You cannot attach files in this forum
You cannot download files in this forum