Today is a free download without charge Download

Красный Штат / Red State (Кевин Смит / Kevin Smith) [2011, США, триллер, драма, DVD5] R5 «New Dream media», «Новый Диск»

Reply to topic
 
Author
Message

voovaz ®

Gender:

Longevity: 9 years 5 months

Posts: 87

Торрент-статистика

Post 22-Nov-2011 02:48

[Quote]

-Красный Штат / Red State-«Побойся Бога» -Страна: США
Студия: Harvey Boys, The, NVSH Productions
Жанр: триллер, драма
Год выпуска: 2011
Мировая премьера: 23 января 2011
Российская премьера: 20 октября 2011, «Top Film Distribution»
Дата выхода DVD: 24 ноября 2011, «New Dream media», «Новый Диск»
Продолжительность: 01:24:37
Перевод: Профессиональный (дублированный) [Лицензия]
Cубтитры: украинские
Оригинальная аудиодорожка: английский-Режиссер: Кевин Смит / Kevin Smith-В ролях: Майкл Ангарано, Дебора Акила, Николас Браун, Ронни Коннелл, Кайли Дэфер, Джои Фигуроа, Кайл Галлнер, Анна Ганн, Мэтт Л. Джонс, Джон Лэси-Описание: Три подростка отвечают на интернет-предложение сексуального характера, но все их эротические фантазии заканчиваются тем, что, очнувшись после потери сознания, они оказываются в заложниках у фанатиков религиозной общины. В стремлении направить на путь истинный сотни заблудших душ местный священник считает оправданным пролить кровь парочки согрешивших, которыми являются главные герои.
В попытке спастись из ловушки сектантов они обнаруживают комнату, полностью заполненную оружием. Становится ясно, что тут все настроены агрессивно, и их агрессия, судя по количеству боевых припасов, способна уложить на лопатки тысячи. Но что сильнее: религиозная идея проповедника или животное желание выжить ни в чем не повинных парней?
-Бонусы: нет- -Качество: DVD5 R5
Формат: DVD-Video
Видео кодек: MPEG2
Аудио кодек: AC3
Видео: PAL 16:9 (720x576(0.479)) MPEG Video, 25,000 кадр/сек, 4969 Кбит/сек
Аудио #1: Russian (Dolby AC3, 6 ch) 384 Кбит/сек, 48,0 КГц
Аудио #2: English (Dolby AC3, 6 ch) 384 Кбит/сек, 48,0 КГц-
-

DVDInfo

Title:
Size: 3.80 Gb ( 3 987 756 KBytes ) - DVD-5
Enabled regions: 1, 2, 3, 4, 5, 6, 7, 8
VTS_01 :
Play Length: 00:00:08
Video: PAL 4:3 (720x576) VBR
VTS_02 :
Play Length: 00:00:13
Video: PAL 16:9 (720x576) VBR, Auto Pan&Scan
VTS_03 :
Play Length: 01:24:37
Video: PAL 16:9 (720x576) VBR, Auto Pan&Scan
Audio:
Russian (Dolby AC3, 6 ch)
English (Dolby AC3, 6 ch)
Subtitles:
Ukrainian
VTS_04 :
Play Length: 00:02:11+00:01:48+00:01:57+00:02:08
Video: PAL 16:9 (720x576) VBR, Auto Pan&Scan
Audio:
English (Dolby AC3, 2 ch)
Menu Video:
NTSC 4:3 (720x480) VBR
Auto Pan&Scan, Auto Letterboxed
Menu Russian Language Unit :
Root Menu
Chapter (PTT) Menu
Audio Menu
Angle menu

MediaInfo

Общее
Полное имя : G:\Новинки 2011\Krasnyj.shtat.2011.DVD5\VIDEO_TS\VTS_03_1.VOB
Формат : MPEG-PS
Размер файла : 1024 Мбайт
Продолжительность : 24 м.
Общий поток : 5854 Кбит/сек
Видео
Идентификатор : 224 (0xE0)
Формат : MPEG Video
Версия формата : Version 2
Профиль формата : [email protected]
Параметр BVOP формата : Да
Параметр матрицы формата : Выборочная
Продолжительность : 24 м.
Вид битрейта : Переменный
Битрейт : 4969 Кбит/сек
Максимальный битрейт : 8000 Кбит/сек
Ширина : 720 пикселей
Высота : 576 пикселей
Соотношение сторон : 16:9
Частота кадров : 25,000 кадров/сек
Стандарт вещания : PAL
Цветовое пространство : YUV
Субдискретизация насыщенности : 4:2:0
Битовая глубина : 8 бит
Тип развёртки : Чересстрочная
Порядок развёртки : Верхнее поле первое
Метод сжатия : С потерями
Бит/(Пиксели*Кадры) : 0.479
Размер потока : 869 Мбайт (85%)
Аудио #1
Идентификатор : 189 (0xBD)-128 (0x80)
Формат : AC-3
Формат/Информация : Audio Coding 3
Расширение режима : CM (complete main)
Режим смешивания : DVD-Video
Продолжительность : 24 м.
Вид битрейта : Постоянный
Битрейт : 384 Кбит/сек
Каналы : 6 каналов
Расположение каналов : Front: L C R, Side: L R, LFE
Частота : 48,0 КГц
Битовая глубина : 16 бит
Метод сжатия : С потерями
Размер потока : 67,2 Мбайт (7%)
Аудио #2
Идентификатор : 189 (0xBD)-129 (0x81)
Формат : AC-3
Формат/Информация : Audio Coding 3
Расширение режима : CM (complete main)
Режим смешивания : DVD-Video
Продолжительность : 24 м.
Вид битрейта : Постоянный
Битрейт : 384 Кбит/сек
Каналы : 6 каналов
Расположение каналов : Front: L C R, Side: L R, LFE
Частота : 48,0 КГц
Битовая глубина : 16 бит
Метод сжатия : С потерями
Размер потока : 67,2 Мбайт (7%)
Текст
Идентификатор : 189 (0xBD)-32 (0x20)
Формат : RLE
Формат/Информация : Run-length encoding
Режим смешивания : DVD-Video
Продолжительность : 24 м.
Задержка видео : 8 с. 320 мс.

Скриншоты меню

     

Скриншоты фильма

               
-
-
-
-
Other forum [Profile] [PM]
Similar theme
Forum Topic Author Torrent Replies Last Post
./templates/default/images/folder_dl.gif Развлекательные телепередачи и шоу, приколы и юмор Красная звезда. 20 лучших песен 2012 года [эфир от 01.01] (2013) HDTVRemux от Тorrent-Хzona Omen
0 | 1

0 | 1022

0

2013-01-28 04:33
Omen Latest
./templates/default/images/folder_dl.gif Техническая и научно-популярная литература С. С. Войтиков | Отечественные спецслужбы и Красная армия. 1917-1921 (2010) [FB2, EPUB] Omen
1 | 0

0 | 465

2

2015-04-25 18:35
Omen Latest
Display posts from previous:    
Reply to topic

The time now is: Today 12:40

All times are GMT + 3 Hours



You cannot post new topics in this forum
You cannot reply to topics in this forum
You cannot edit your posts in this forum
You cannot delete your posts in this forum
You cannot vote in polls in this forum
You cannot attach files in this forum
You cannot download files in this forum