Today is a free download without charge Download

Вий 3D в 3Д / 3D (Олег Степченко) [2014, фэнтези, триллер, DCPrip] Half OverUnder / Вертикальная анаморфная стереопара

Reply to topic
 
Author
Message

Omen ®

Longevity: 8 years 9 months

Posts: 181087

Торрент-статистика

Post 29-Dec-2013 23:31

[Quote]

Вий 3D / Трейлер 3D «Не бойся...»
Год выпуска: 2014
Страна: Германия, Великобритания, Чехия, Украина, Россия
Жанр: фэнтези, триллер
Продолжительность: 00:01:40
Русские субтитры: нет
Режиссер на русском: Олег Степченко
В ролях: Джейсон Флеминг (Карты, деньги, два ствола, Большой куш); Чарльз Дэнс (Другой мир: Пробуждение, Чужой 3, сериал Игра престолов); Алексей Чадов (Дневной дозор, 9 рота) Агния Дитковските (С Новым годом, мамы!, Жара); Анна Чурина (Мужчина с гарантией, Бумер: Фильм второй);Андрей Смоляков (Высоцкий. Спасибо, что живой, Антикиллер 2: Антитеррор); Юрий Цурило (Пирамммида, Овсянки, Хрусталев, машину!);Виктор Бычков (Особенности национальной охоты, Кукушка); Олег Тактаров (Сокровище нации, Плохие парни 2)
Описание: …Начало XVIII века. Картограф Джонатан Грин совершает путешествие из Европы на Восток. Следуя через Трансильванию, он понимает, что заблудился. Изрядно поплутав в тумане, он оказывается в небольшом казацком поселении. Народ живет здесь в затворничестве, оградив себя от любых контактов с остальным миром. Что скрывают жители хутора? Чего боятся и почему прячутся? Ученый решает разгадать тайну, связанную с именем необыкновенного мифического создания — Вия. Древние славянские предания оживают…
Качество: DCPrip
Контейнер: MKV
Формат 3D: Half OverUnder / Вертикальная анаморфная стереопара
Порядок ракурсов: левый ракурс первый
Видео кодек: h.264
Аудио кодек: AC3
Видео: MPEG4 Video (H264),1920х1080,24fps,48.7 Мбит/сек
Аудио: Rus, AC3 48000Hz 6ch

MediaInfo

General
Unique ID : 214201927688273988099767893341534478862 (0xA125CA693859D114B93B8C9DD5B8E20E)
Complete name : F:\Трейлеры\Vii3D.mkv
Format : Matroska
Format version : Version 4 / Version 2
File size : 582 MiB
Duration : 1mn 40s
Overall bit rate mode : Variable
Overall bit rate : 48.7 Mbps
Encoded date : UTC 2013-12-27 19:02:13
Writing application : mkvmerge v6.6.0 ('The Edge Of The In Between') built on Dec 1 2013 17:55:00
Writing library : libebml v1.3.0 + libmatroska v1.4.1
Video
ID : 2
Format : AVC
Format/Info : Advanced Video Codec
Format profile : [email protected]
Format settings, CABAC : Yes
Format settings, ReFrames : 4 frames
Format settings, GOP : M=3, N=15
Codec ID : V_MPEG4/ISO/AVC
Duration : 1mn 40s
Bit rate mode : Variable
Bit rate : 47.2 Mbps
Maximum bit rate : 200 Mbps
Width : 1 920 pixels
Height : 1 080 pixels
Display aspect ratio : 16:9
Frame rate mode : Constant
Frame rate : 24.000 fps
Standard : NTSC
Color space : YUV
Chroma subsampling : 4:2:0
Bit depth : 8 bits
Scan type : Progressive
Bits/(Pixel*Frame) : 0.949
Stream size : 565 MiB (97%)
Default : Yes
Forced : No
Color primaries : BT.709
Transfer characteristics : BT.709
Matrix coefficients : BT.709
Audio
ID : 1
Format : AC-3
Format/Info : Audio Coding 3
Mode extension : CM (complete main)
Format settings, Endianness : Big
Codec ID : A_AC3
Duration : 1mn 40s
Bit rate mode : Constant
Bit rate : 448 Kbps
Channel count : 6 channels
Channel positions : Front: L C R, Side: L R, LFE
Sampling rate : 48.0 KHz
Bit depth : 16 bits
Compression mode : Lossy
Stream size : 5.36 MiB (1%)
Language : Russian
Default : Yes
Forced : No

Скриншоты



Премьера (РФ): 30 января 2014, «UPI» 3D.
Other forum [Profile] [PM]
Display posts from previous:    
Reply to topic

The time now is: Today 04:40

All times are GMT + 3 Hours



You cannot post new topics in this forum
You cannot reply to topics in this forum
You cannot edit your posts in this forum
You cannot delete your posts in this forum
You cannot vote in polls in this forum
You cannot attach files in this forum
You cannot download files in this forum