Today is a free download without charge Download

Discovery. Самый разрушительный тайфун / Megastorm: World\'s Biggest Typhoon (2013) HDTVRip [H.264/720p-LQ]

Reply to topic
 
Author
Message

UndegraundMen ®

Longevity: 7 years 7 months

Posts: 25145

Торрент-статистика

Post 29-Dec-2013 23:00

[Quote]

Discovery. Самый разрушительный тайфун / Megastorm: World's Biggest Typhoon (2013) HDTVRip [H.264/720p-LQ]- Режиссер / Телекомпания: ITN Prod. for Discovery Channel
Страна: Великобритания
Год выпуска: 2013
Жанр: Документальный, научно-популярный, природа
Описание: Тщательный анализ самого страшного и разрушительного тайфуна в истории, обрушившегося на Филиппины в ноябре 2013. Истории реальных людей, эксклюзивные видеозаписи и научное объяснение катастрофы....
Продолжительность: 00:43:31
Перевод: Одноголосый закадровый (профессиональный)
Видеокодек: MPEG-4 AVC/H.264
Битрейт видео: ~2 750 Кбит/с
Размер кадра: 1280 x 720
Качество видео: HDTVRip [720p-LQ]
Аудио:
1. [русский] AC3, 2.0 ch, 192 Кбит/с

MediaInfo

General
Unique ID : 192228134111725767841766724145303373678 (0x909DCABE262EE004BB4EAC7A3769C76E)
Complete name : D:\TORRENTS\!!! РЕЛИЗЫ\Discovery.Megastorm.Worlds.Biggest.Typhoon.2013.HDTVRip.720p.mkv
Format : Matroska
Format version : Version 4 / Version 2
File size : 931 MiB
Duration : 43mn 31s
Overall bit rate : 2 991 Kbps
Encoded date : UTC 2013-12-29 10:07:16
Writing application : mkvmerge v6.1.0 ('Old Devil') built on Mar 2 2013 14:32:37
Writing library : libebml v1.3.0 + libmatroska v1.4.0
Video
ID : 1
Format : AVC
Format/Info : Advanced Video Codec
Format profile : [url=mailto:[email protected]][email protected][/url]
Format settings, CABAC : Yes
Format settings, ReFrames : 5 frames
Codec ID : V_MPEG4/ISO/AVC
Duration : 43mn 31s
Bit rate : 2 740 Kbps
Width : 1 280 pixels
Height : 720 pixels
Display aspect ratio : 16:9
Frame rate mode : Constant
Frame rate : 25.000 fps
Color space : YUV
Chroma subsampling : 4:2:0
Bit depth : 8 bits
Scan type : Progressive
Bits/(Pixel*Frame) : 0.119
Stream size : 853 MiB (92%)
Writing library : x264 core 140 r2377 1ca7bb9
Encoding settings : cabac=1 / ref=5 / deblock=1:0:0 / analyse=0x3:0x113 / me=umh / subme=8 / psy=1 / psy_rd=1.00:0.00 / mixed_ref=1 / me_range=16 / chroma_me=1 / trellis=1 / 8x8dct=1 / cqm=0 / deadzone=21,11 / fast_pskip=1 / chroma_qp_offset=-2 / threads=12 / lookahead_threads=2 / sliced_threads=0 / nr=0 / decimate=1 / interlaced=0 / bluray_compat=0 / constrained_intra=0 / bframes=3 / b_pyramid=2 / b_adapt=2 / b_bias=0 / direct=3 / weightb=1 / open_gop=0 / weightp=2 / keyint=250 / keyint_min=25 / scenecut=40 / intra_refresh=0 / rc_lookahead=50 / rc=crf / mbtree=1 / crf=21.0 / qcomp=0.60 / qpmin=0 / qpmax=69 / qpstep=4 / ip_ratio=1.40 / aq=1:1.00
Default : Yes
Forced : No
Audio
ID : 2
Format : AC-3
Format/Info : Audio Coding 3
Mode extension : CM (complete main)
Format settings, Endianness : Big
Codec ID : A_AC3
Duration : 43mn 31s
Bit rate mode : Constant
Bit rate : 192 Kbps
Channel(s) : 2 channels
Channel positions : Front: L R
Sampling rate : 48.0 KHz
Bit depth : 16 bits
Compression mode : Lossy
Stream size : 59.8 MiB (6%)
Language : Russian
Default : Yes
Forced : No
Скриншоты:
         
         
Пожалуйста, не уходите с раздачи - помогите докачать другим. Если понравился релиз - жмите кнопку "Спасибо"!
Время раздачи: 24 / 7
Other forum [Profile] [PM]
Display posts from previous:    
Reply to topic

The time now is: Today 02:52

All times are GMT + 3 Hours



You cannot post new topics in this forum
You cannot reply to topics in this forum
You cannot edit your posts in this forum
You cannot delete your posts in this forum
You cannot vote in polls in this forum
You cannot attach files in this forum
You cannot download files in this forum