Today is a free download without charge Download

Повелитель страниц / The Pagemaster (Пиксоут Хант, Джо Джонстон / Pixote Hunt, Joe Johnston) [1994, мультфильм, приключения, семейный, BDRemux 1080p] 2xMVO + 5xAVO + 2xUKR + ENG + Subs

Reply to topic
 
Author
Message

Omen ®

Longevity: 8 years

Posts: 181087

Торрент-статистика

Post 28-Dec-2013 14:27

[Quote]

Повелитель страниц / The Pagemaster-Страна: США
Жанр: мультфильм, приключения, семейный
Продолжительность: 01:15:28
Год выпуска: 1994
Перевод 1: Профессиональный (многоголосый закадровый) "Позитив-мультимедиа"
Перевод 2: Профессиональный (многоголосый закадровый) ТНТ/СТС
Перевод 3: Авторский (одноголосый закадровый) Юрий Сербин
Перевод 4: Авторский (одноголосый закадровый) Сергей Визгунов
Перевод 5: Авторский (одноголосый закадровый) Вартан Дохалов
Перевод 6: Авторский (одноголосый закадровый) Василий Горчаков
Перевод 7: Авторский (одноголосый закадровый) Антон Пронин
Русские субтитры: есть-Режиссёры: Пиксоут Хант, Джо Джонстон / Pixote Hunt, Joe Johnston
В ролях: Маколей Калкин, Кенан Дж. Хоувл, Алексис Киршнер, Джессика Киршнер, Гай Манскер, Брэндон С. МакКэй, Стефен Шиэн, Эд Бегли мл., Мел Харрис, Кристофер Ллойд...- -Описание: Ричайрд Тайлер заходит в библиотеку и, благодаря волшебству, попадает на страницы самых лучших детских книг. Вместе с любимыми героями он участвует в мультипликационных приключениях, так как сам стал мультяшкой.-Доп. информация:
  • За исходный ремукс спасибо dsk71.
  • Перевод Юрия Сербина доступен благодаря пользователям ресурса E180 denis_mgn_1987, Марлон, Nadoelo, vik19662007, Linnan, duckling, Wolf_Larsen, I_Am_Hell, xfiles, luka69, ZeDOK, foxlight, DreamWarrior, multmir, xerman13, carnivale, Letyoha3, SavineX78, pestel, ZombX, ultrajeka, Jiraya87, KINOGON при участии пользователей HD-Club'а Luka69, Naumec.
  • Дорожки с переводами "Позитив-мультимедиа", Юрия Сербина и Сергея Визгунова получены путём наложения голосов на декодированный центральный канал оригинальной DTS-HD MA дорожки. Работа со звуком - xfiles.
  • За звуковую дорожку с переводом Василия Горчакова спасибо ilbib, vik19662007, duckling.
  • За звуковую дорожку с переводом "ТНТ/СТС" спасибо miha2154.
  • За исходные украинские звуковые дорожки спасибо xslim и olgaya. Синхронизация - xfiles.
-Семпл: скачать-Качество: BDRemux 1080p [исходник The.Pagemaster.1994.1080p.BD-Remux.3хRus.Ukr.Eng.HDCLUB]
Формат: MKV
Видео: 1920x1080 (16:9), 23.976 fps, AVC, 36401 kbps
Аудио #1: Русский, 48.0 KHz, DTS-HD MA, 6 ch, 4363/1509 kbps, 24-bit - Многоголосый закадровый | "Позитив-мультимериа"
Аудио #2: Русский, 48.0 KHz, AC3, 2 ch, 192 kbps - Многоголосый закадровый | ТНТ/СТС
Аудио #3: Русский, 48.0 KHz, DTS-HD MA, 6 ch, 4367/1509 kbps, 24-bit - Одноголосый закадровый | Юрий Сербин
Аудио #4: Русский, 48.0 KHz, DTS-HD MA, 6 ch, 4357/1509 kbps, 24-bit - Одноголосый закадровый | Сергей Визгунов
Аудио #5: Русский, 48.0 KHz, AC3, 2 ch, 192 kbps - Одноголосый закадровый | Вартан Дохалов (VHS)
Аудио #6: Русский, 48.0 KHz, AC3, 2 ch, 192 kbps - Одноголосый закадровый | Василий Горчаков (VHS)
Аудио #7: Русский, 48.0 KHz, AC3, 2 ch, 192 kbps - Одноголосый закадровый | Антон Пронин (VHS)
Аудио #8: Українська, 48.0 KHz, AC3, 1 ch, 192 kbps - Багатоголосий закадровый | "Новий канал"
Аудио #9: Українська, 48.0 KHz, AC3, 1 ch, 192 kbps - Двоголосий закадровый | "Гамма"
Аудио #10: English, 48.0 KHz, DTS-HD MA, 6 ch, 4347/1509 kbps, 24-bit - Original
Субтитры: Русские, English (SDH)

MediaInfo

GeneralUnique ID : 244347370540410320021824699476433464684 (0xB7D3977E9B2A3CC8B726B34CA8786D6C)Complete name : The.Pagemaster.1994.BDRemux.1080p.x264-xfiles.rutracker.mkvFormat : MatroskaFormat version : Version 4 / Version 2File size : 29.0 GiBDuration : 1h 15mnOverall bit rate mode : VariableOverall bit rate : 55.0 MbpsMovie name : The Pagemaster 1994 BDRemux 1080p x264-xfiles.rutrackerEncoded date : UTC 2013-12-28 06:49:06Writing application : mkvmerge v6.5.0 ('Isn't she lovely') built on Oct 20 2013 12:50:05Writing library : libebml v1.3.0 + libmatroska v1.4.1
VideoID : 1Format : AVCFormat/Info : Advanced Video CodecFormat profile : [email protected] settings, CABAC : YesFormat settings, ReFrames : 4 framesCodec ID : V_MPEG4/ISO/AVCDuration : 1h 15mnBit rate mode : VariableMaximum bit rate : 40.0 MbpsWidth : 1 920 pixelsHeight : 1 080 pixelsDisplay aspect ratio : 16:9Frame rate mode : ConstantFrame rate : 23.976 fpsColor space : YUVChroma subsampling : 4:2:0Bit depth : 8 bitsScan type : ProgressiveTitle : http:///*spam*//forum/viewtopic.php?t=4626139Language : EnglishDefault : YesForced : No
Audio #1ID : 2Format : DTSFormat/Info : Digital Theater SystemsFormat profile : MA / CoreMode : 16Format settings, Endianness : BigCodec ID : A_DTSDuration : 1h 15mnBit rate mode : VariableBit rate : Unknown / 1 509 KbpsChannel(s) : 6 channelsChannel positions : Front: L C R, Side: L R, LFESampling rate : 48.0 KHzBit depth : 24 bitsCompression mode : Lossless / LossyTitle : Многоголосый закадровый | "Позитив-мультимериа"Language : RussianDefault : YesForced : No
Audio #2ID : 3Format : AC-3Format/Info : Audio Coding 3Mode extension : CM (complete main)Format settings, Endianness : BigCodec ID : A_AC3Duration : 1h 15mnBit rate mode : ConstantBit rate : 192 KbpsChannel(s) : 2 channelsChannel positions : Front: L RSampling rate : 48.0 KHzBit depth : 16 bitsCompression mode : LossyStream size : 104 MiB (0%)Title : Многоголосый закадровый | ТНТ/СТСLanguage : RussianDefault : NoForced : No
Audio #3ID : 4Format : DTSFormat/Info : Digital Theater SystemsFormat profile : MA / CoreMode : 16Format settings, Endianness : BigCodec ID : A_DTSDuration : 1h 15mnBit rate mode : VariableBit rate : Unknown / 1 509 KbpsChannel(s) : 6 channelsChannel positions : Front: L C R, Side: L R, LFESampling rate : 48.0 KHzBit depth : 24 bitsCompression mode : Lossless / LossyTitle : Одноголосый закадровый | Юрий СербинLanguage : RussianDefault : NoForced : No
Audio #4ID : 5Format : DTSFormat/Info : Digital Theater SystemsFormat profile : MA / CoreMode : 16Format settings, Endianness : BigCodec ID : A_DTSDuration : 1h 15mnBit rate mode : VariableBit rate : Unknown / 1 509 KbpsChannel(s) : 6 channelsChannel positions : Front: L C R, Side: L R, LFESampling rate : 48.0 KHzBit depth : 24 bitsCompression mode : Lossless / LossyTitle : Одноголосый закадровый | Сергей ВизгуновLanguage : RussianDefault : NoForced : No
Audio #5ID : 6Format : AC-3Format/Info : Audio Coding 3Mode extension : CM (complete main)Format settings, Endianness : BigCodec ID : A_AC3Duration : 1h 15mnBit rate mode : ConstantBit rate : 192 KbpsChannel(s) : 2 channelsChannel positions : Front: L RSampling rate : 48.0 KHzBit depth : 16 bitsCompression mode : LossyStream size : 104 MiB (0%)Title : Одноголосый закадровый | Вартан Дохалов (VHS)Language : RussianDefault : NoForced : No
Audio #6ID : 7Format : AC-3Format/Info : Audio Coding 3Mode extension : CM (complete main)Format settings, Endianness : BigCodec ID : A_AC3Duration : 1h 15mnBit rate mode : ConstantBit rate : 192 KbpsChannel(s) : 2 channelsChannel positions : Front: L RSampling rate : 48.0 KHzBit depth : 16 bitsCompression mode : LossyStream size : 104 MiB (0%)Title : Одноголосый закадровый | Василий Горчаков (VHS)Language : RussianDefault : NoForced : No
Audio #7ID : 8Format : AC-3Format/Info : Audio Coding 3Mode extension : CM (complete main)Format settings, Endianness : BigCodec ID : A_AC3Duration : 1h 15mnBit rate mode : ConstantBit rate : 192 KbpsChannel(s) : 2 channelsChannel positions : Front: L RSampling rate : 48.0 KHzBit depth : 16 bitsCompression mode : LossyStream size : 104 MiB (0%)Title : Одноголосый закадровый | Антон Пронин (VHS)Language : RussianDefault : NoForced : No
Audio #8ID : 9Format : AC-3Format/Info : Audio Coding 3Mode extension : CM (complete main)Format settings, Endianness : BigCodec ID : A_AC3Duration : 1h 15mnBit rate mode : ConstantBit rate : 192 KbpsChannel(s) : 1 channelChannel positions : Front: CSampling rate : 48.0 KHzBit depth : 16 bitsCompression mode : LossyStream size : 104 MiB (0%)Title : Багатоголосий закадровий | "Новий канал"Language : UkrainianDefault : NoForced : No
Audio #9ID : 10Format : AC-3Format/Info : Audio Coding 3Mode extension : CM (complete main)Format settings, Endianness : BigCodec ID : A_AC3Duration : 1h 15mnBit rate mode : ConstantBit rate : 192 KbpsChannel(s) : 1 channelChannel positions : Front: CSampling rate : 48.0 KHzBit depth : 16 bitsCompression mode : LossyStream size : 104 MiB (0%)Title : Двоголосий закадровий | "Гамма"Language : UkrainianDefault : NoForced : No
Audio #10ID : 11Format : DTSFormat/Info : Digital Theater SystemsFormat profile : MA / CoreMode : 16Format settings, Endianness : BigCodec ID : A_DTSDuration : 1h 15mnBit rate mode : VariableBit rate : Unknown / 1 509 KbpsChannel(s) : 6 channelsChannel positions : Front: L C R, Side: L R, LFESampling rate : 48.0 KHzBit depth : 24 bitsCompression mode : Lossless / LossyTitle : OriginalLanguage : EnglishDefault : NoForced : No
Text #1ID : 12Format : UTF-8Codec ID : S_TEXT/UTF8Codec ID/Info : UTF-8 Plain TextLanguage : RussianDefault : NoForced : No
Text #2ID : 13Format : UTF-8Codec ID : S_TEXT/UTF8Codec ID/Info : UTF-8 Plain TextTitle : SDHLanguage : EnglishDefault : NoForced : No
Menu00:00:00.000 : :01. Main Titles00:03:47.894 : :02. Afraid00:07:56.224 : :03. The Library00:12:48.559 : :04. An Illustration00:16:47.005 : :05. Adventure00:19:19.907 : :06. Fantasy00:22:57.501 : :07. Horror00:31:02.443 : :08. To the Exit00:33:11.823 : :09. Captain Ahab00:36:15.797 : :10. Pirates00:39:46.884 : :11. Treasure Island00:45:45.826 : :12. The Library Card00:51:23.330 : :13. The Dragon00:57:08.216 : :14. Swallowed Whole00:59:34.737 : :15. The Pagemaster01:02:53.102 : :16. Back to the Presen01:05:08.696 : :17. He's Home!01:07:44.685 : :18. End Titles01:15:28.148 : :19. End

Скриншоты

Other forum [Profile] [PM]

Dracula

Longevity: 7 years 1 month

Posts: 11396

Торрент-статистика

Post 01-Jan-2014 17:15 (after 4 days)

Топик был перенесен из форума Мультфильмы (HD) в форум Мультфильмы


Delia
 
Display posts from previous:    
Reply to topic

The time now is: Today 06:15

All times are GMT + 3 Hours



You cannot post new topics in this forum
You cannot reply to topics in this forum
You cannot edit your posts in this forum
You cannot delete your posts in this forum
You cannot vote in polls in this forum
You cannot attach files in this forum
You cannot download files in this forum