Today is a free download without charge Download

Discovery: Америка с высоты: Калифорния / Aerial America (2013) HDTVRip

Reply to topic
 
Author
Message

UndegraundMen ®

Longevity: 7 years 7 months

Posts: 25145

Торрент-статистика

Post 28-Dec-2013 11:02

[Quote]

Discovery: Америка с высоты: Калифорния / Aerial America (2013) HDTVRip - Режиссер / Телекомпания: Discovery
Русское название: Америка с высоты
Оригинальное название: Aerial America
Год выпуска: 2013
Жанр: Документальный, научно-познавательный, строительство
Выпущено: США, SNI/SI Networks L.L.C.
Описание:
Тихоокеанская автомагистраль штата Калифорния проходит вдоль самого большого океана на планете. Путешественникам открывается вид на море в бескрайнее пространство. Трасса проходит через земли не менявшиеся тысячилетиями. Дорога ведет к городу, появившемуся во времена золотой лихорадки, который может похвастаться самым знаменитым мостом Америки и самой печальной тюрьмой. Тихоокеанская автомагистраль одна из самых красивых дорог, но это не просто дорога, это место половничества воссоединение с историей Калифорнии - ее природой, ее мифологией.
Режиссёр: Тоби Бич
Текст читал: Сергей Дуглов
Озвучено: Студия Кириллица
Перевод: Одноголосый закадровый
Продолжительность: ~ 00:44:04
Видеокодек: XVID
Битрейт видео: ~1798 kb/s
Размер кадра: 720 x 400
Качество видео: HDTVRip
Аудиокодек: MP3, 2ch.
Битрейт аудио: 192 kb/s

MediaInfo

Формат : AVI
Формат/Информация : Audio Video Interleave
Размер файла : 631 Мбайт
Продолжительность : 44 м.
Общий поток : 2001 Кбит/сек
Программа кодирования : VirtualDubMod 1.5.10.3 | www.virtualdub-fr.org || (build 2550/release)
Библиотека кодирования : VirtualDubMod build 2550/release
Видео
Идентификатор : 0
Формат : MPEG-4 Visual
Профиль формата : Advanced [email protected]
Параметр BVOP формата : 1
Параметр QPel формата : Нет
Параметр GMC формата : Без точки перехода
Параметр матрицы формата : Default (H.263)
Идентификатор кодека : XVID
Идентификатор кодека/Подсказка : XviD
Продолжительность : 44 м.
Битрейт : 1799 Кбит/сек
Ширина : 720 пикселей
Высота : 400 пикселей
Соотношение сторон : 16:9
Частота кадров : 25,000 кадров/сек
Цветовое пространство : YUV
Субдискретизация насыщенности : 4:2:0
Битовая глубина : 8 бит
Тип развёртки : Прогрессивная
Метод сжатия : С потерями
Бит/(Пиксели*Кадры) : 0.250
Размер потока : 567 Мбайт (90%)
Библиотека кодирования : XviD 73
Аудио
Идентификатор : 1
Формат : MPEG Audio
Версия формата : Version 1
Профиль формата : Layer 3
Идентификатор кодека : 55
Идентификатор кодека/Подсказка : MP3
Продолжительность : 44 м.
Вид битрейта : Постоянный
Битрейт : 192 Кбит/сек
Каналы : 2 канала
Частота : 44,1 КГц
Метод сжатия : С потерями
Размер потока : 60,5 Мбайт (10%)
Выравнивание : Разделение по промежуткам
Продолжительность промежутка : 40 мс. (1,00 видеокадр)
Время предзагрузки промежутка : 500 мс.
Библиотека кодирования : LAME3.99r
Настройки программы : -m s -V 4 -q 0 -lowpass 18.6 -b 192
Скриншоты:          Время раздачи: 24/7. До первых 5 скачавших.
Rip by vsobbol
Other forum [Profile] [PM]
Display posts from previous:    
Reply to topic

The time now is: Today 08:13

All times are GMT + 3 Hours



You cannot post new topics in this forum
You cannot reply to topics in this forum
You cannot edit your posts in this forum
You cannot delete your posts in this forum
You cannot vote in polls in this forum
You cannot attach files in this forum
You cannot download files in this forum