Today is a free download without charge Download

Гeoгpaф глobуc пpoпил (Александр Велединский) [2013, Россия, Драма, BDRip 1080р]

Reply to topic
 
Author
Message

Omen ®

Longevity: 8 years 10 months

Posts: 181086

Торрент-статистика

Post 27-Dec-2013 23:02

[Quote]

Географ глобус пропил
Страна: Россия
Жанр: Драма
Год выпуска: 2013
Продолжительность: 02:04:51
Перевод: Не требуется
Cубтитры: нет
Оригинальная аудиодорожка: нет-Режиссер: Александр Велединский-В ролях: Константин Хабенский, Елена Лядова, Александр Робак, Евгения Брик, Анна Уколова, Евгения Крегжде, Агриппина Стеклова, Максим Лагашкин, Анфиса Черных, Андрей Прытков-Описание: Победитель «Кинотавра», возможно, лучший (и точно самый важный) русский фильм года, экранизация одноименного и крайне удачного романа Алексея Иванова — про вечного неудачника (Константин Хабенский), вынужденно ставшего преподавателем географии в пермской школе и влюбленного во все человечество — от собственной неверной жены (блистательный выход Елены Лядовой) до нагловатых школьников, раз от раза придумывающих для него все более жестокие проверки. Почти советское по уровню (в самом лучшем смысле) и одновременно крайне современное кино, обнаруживающее героя нашего времени совсем не там, где его можно было ожидать.-Релиз: Релиз группа: -Качество видео: BDRip 1080р
Формат видео: MKV
Видео: MPEG-4 AVC, 10.5 Mбит/с, 1920x804, 24 fps
Аудио: DTS Audio Russian 5.1 / 48 kHz / 1536 kbps / 24-bit

MediaInfo

Код:
Format                                   : Matroska
Format version                           : Version 4 / Version 2
File size                                : 10.5 GiB
Duration                                 : 2h 4mn
Overall bit rate                         : 12.0 Mbps
Movie name                               : CMEGRoup
Encoded date                             : UTC 2013-12-25 04:12:34
Writing application                      : mkvmerge v6.6.0 ('The Edge Of The In Between') built on Dec  1 2013 17:55:00
Writing library                          : libebml v1.3.0 + libmatroska v1.4.1
Video
ID                                       : 1
Format                                   : AVC
Format/Info                              : Advanced Video Codec
Format profile                           : [email protected]
Format settings, CABAC                   : Yes
Format settings, ReFrames                : 4 frames
Codec ID                                 : V_MPEG4/ISO/AVC
Duration                                 : 2h 4mn
Bit rate                                 : 10.5 Mbps
Width                                    : 1 920 pixels
Height                                   : 804 pixels
Display aspect ratio                     : 2.40:1
Frame rate                               : 24.000 fps
Color space                              : YUV
Chroma subsampling                       : 4:2:0
Bit depth                                : 8 bits
Scan type                                : Progressive
Bits/(Pixel*Frame)                       : 0.283
Stream size                              : 8.95 GiB (85%)
Writing library                          : x264 core 138 r2358 9e941d1
Encoding settings                        : cabac=1 / ref=4 / deblock=1:-3:-3 / analyse=0x3:0x113 / me=umh / subme=11 / psy=1 / psy_rd=1.00:0.00 / mixed_ref=1 / me_range=32 / chroma_me=1 / trellis=2 / 8x8dct=1 / cqm=0 / deadzone=21,11 / fast_pskip=1 / chroma_qp_offset=-2 / threads=12 / lookahead_threads=1 / sliced_threads=0 / nr=0 / decimate=1 / interlaced=0 / bluray_compat=0 / constrained_intra=0 / bframes=5 / b_pyramid=2 / b_adapt=1 / b_bias=0 / direct=2 / weightb=1 / open_gop=0 / weightp=2 / keyint=240 / keyint_min=24 / scenecut=40 / intra_refresh=0 / rc_lookahead=40 / rc=2pass / mbtree=1 / bitrate=10500 / ratetol=1.0 / qcomp=0.60 / qpmin=10 / qpmax=51 / qpstep=4 / cplxblur=20.0 / qblur=0.5 / vbv_maxrate=62500 / vbv_bufsize=78125 / nal_hrd=none / ip_ratio=1.40 / aq=1:1.00
Language                                 : English
Default                                  : Yes
Forced                                   : No
Audio
ID                                       : 2
Format                                   : DTS
Format/Info                              : Digital Theater Systems
Codec ID                                 : A_DTS
Duration                                 : 2h 4mn
Bit rate mode                            : Constant
Bit rate                                 : 1 510 Kbps
Channel(s)                               : 6 channels
Channel positions                        : Front: L C R, Side: L R, LFE
Sampling rate                            : 48.0 KHz
Bit depth                                : 16 bits
Compression mode                         : Lossy
Stream size                              : 1.32 GiB (13%)
Default                                  : Yes
Forced                                   : No
Menu
00:00:00.000                             : en:00:00:00.000
00:12:18.708                             : en:00:12:18.708
00:18:58.292                             : en:00:18:58.292
00:27:08.542                             : en:00:27:08.542
00:35:54.125                             : en:00:35:54.125
00:45:32.458                             : en:00:45:32.458
00:53:58.333                             : en:00:53:58.333
01:02:12.333                             : en:01:02:12.333
01:12:47.417                             : en:01:12:47.417
01:20:55.042                             : en:01:20:55.042
01:29:32.583                             : en:01:29:32.583
01:36:47.917                             : en:01:36:47.917
01:44:25.292                             : en:01:44:25.292
01:52:39.250                             : en:01:52:39.250
01:57:48.917                             : en:01:57:48.917

Скриншоты

Other forum [Profile] [PM]
Display posts from previous:    
Reply to topic

The time now is: Today 14:59

All times are GMT + 3 Hours



You cannot post new topics in this forum
You cannot reply to topics in this forum
You cannot edit your posts in this forum
You cannot delete your posts in this forum
You cannot vote in polls in this forum
You cannot attach files in this forum
You cannot download files in this forum