Today is a free download without charge Download

Полярный экспресс / The Polar Express (Роберт Земекис / Robert Zemeckis) [2004 г., фэнтези, приключения, семейный, мультфильм, BDRemux 1080p] DUB + DVO (Tycoon) + MVO (Киномания) + 2xAVO (Королёв, Рудой) + 2xUKR + ENG + subs

Reply to topic
 
Author
Message

Omen ®

Longevity: 8 years

Posts: 181087

Торрент-статистика

Post 27-Dec-2013 11:56

[Quote]

Полярный экспресс / The Polar Express- Страна: США
Жанр: фэнтези, приключения, семейный, мультфильм
Продолжительность: 01:39:56
Год выпуска: 2004
Перевод 1: Профессиональный (дублированный) "Мосфильм-Мастер"
Перевод 2: Профессиональный (двухголосый закадровый) "Tycoon"
Перевод 3: Профессиональный (многоголосый закадровый) "Киномания"
Перевод 4: Авторский (одноголосый закадровый) Владимир Королёв
Перевод 5: Авторский (одноголосый закадровый) Евгений Рудой
Русские субтитры: есть-Режиссёр: Роберт Земекис / Robert Zemeckis
В ролях: Том Хэнкс, Майкл Джитер, Нона Гей, Питер Сколари, Эдди Дизен, Лесли Хартер Земекис, Чарльз Флайшер, Джош Эли, Марк Мендонка, Роландас Хендрикс- -Описание: Необыкновенная история о маленьком мальчике, который верит в Санта Клауса, несмотря на то, что все друзья и вся семья в один голос утверждают, что это всего лишь сказка. И однажды искренняя вера мальчика вознаграждается. В канун Рождества у его дома останавливается волшебный поезд "Полярный экспресс" и уносит мальчика в чудесное незабываемое путешествие в гости к Санта Клаусу. И пока Рождественская ночь опускается на спящий мир, пассажиры "Полярного экспресса" мчатся на Северный Полюс, встречая на своем пути приключения и опасности, подстерегающие их в темных лесах, зловещих горах и ледяной тундре...-Доп. информация:
  • За исходный Blu-ray Disc спасибо Beonikol.
  • За исходные дорожки с переводами "Tycoon" и "Киномания" спасибо 2al2al и Leroy Braun.
  • За исходные украинские звуковые дорожки спасибо salcom aka xslim.
  • За чистый голос Евгения Рудого спасибо Savely_75. За готовую DTS-HD MA дорожку с переводом Владимира Королёва спасибо Volshebn1k.
  • Дорожки с переводами Владимира Королёва и Евгения Рудого получены путём наложения голосов на декодированный центральный канал оригинальной Dolby TrueHD дорожки с последующей сборкой в DTS-HD MA. Оригинальная Dolby TrueHD дорожка также пересобрана в DTS-HD MA.
  • Работа со звуком - xfiles.
  • Примечание: Дубляж "Мосфильм-Мастер" абсолютно на всех изданиях BD и DVD имеет обрез спектра на уровне 17кГц, что несколько не соответствует качеству AC3/6ch/640kbps. Дорожка оставлена без изменений, дабы не усугублять положение дополнительным пережатием.
-Семпл: скачать-Качество: BDRemux 1080p [исходник: The Polar Express (2004) Blu-ray CEE 1080p VC-1 DD5.1]
Формат: MKV
Видео: 1920x1080 (16:9), 23.976 fps, VC-1, 13731 kbps, 0.300 bits/pixel
Аудио #1: Русский, 48.0 KHz, AC3, 6 ch, 640 kbps - Дубляж | "Мосфильм-Мастер" [BD CEE]
Аудио #2: Русский, 48.0 KHz, AC3, 6 ch, 448 kbps - Закадровый | "Tycoon"
Аудио #3: Русский, 48.0 KHz, AC3, 6 ch, 384 kbps - Закадровый | "Киномания"
Аудио #4: Русский, 48.0 KHz, DTS-HD MA, 6 ch, 2109 kbps/1509 kbps, 16-bit - Закадровый | Владимир Королёв
Аудио #5: Русский, 48.0 KHz, DTS-HD MA, 6 ch, 2096 kbps/1509 kbps, 16-bit - Закадровый | Евгений Рудой
Аудио #6: Українська, 48.0 KHz, AC3, 2 ch, 192 kbps - Закадровий | "Так треба продакшн" на замовлення ТК "Інтер"
Аудио #7: Українська, 48.0 KHz, AC3, 1 ch, 128 kbps - Закадровий | ТК "ICTV"
Аудио #8: English, 48.0 KHz, DTS-HD MA, 6 ch, 2091 kbps/1509 kbps, 16-bit - Original
Субтитры: Русские, Українські, English (Full, SDH)

MediaInfo

GeneralUnique ID : 224192639349968563700775181717132961023 (0xA8A9EE86BE7B03449E01C3D7456664FF)Complete name : E:\HD\The.Polar.Express.2004.BDRemux.1080p.VC-1-xfiles.rutracker.mkvFormat : MatroskaFormat version : Version 4 / Version 2File size : 15.2 GiBDuration : 1h 39mnOverall bit rate mode : VariableOverall bit rate : 21.8 MbpsMovie name : The Polar Express (2004) BDRemux 1080p VC-1-xfiles.rutrackerEncoded date : UTC 2013-12-26 12:38:44Writing application : mkvmerge v6.5.0 ('Isn't she lovely') built on Oct 20 2013 12:50:05Writing library : libebml v1.3.0 + libmatroska v1.4.1
VideoID : 1Format : VC-1Format profile : [email protected] ID : V_MS/VFW/FOURCC / WVC1Codec ID/Hint : MicrosoftDuration : 1h 39mnWidth : 1 920 pixelsHeight : 1 080 pixelsDisplay aspect ratio : 16:9Frame rate mode : ConstantFrame rate : 23.976 fpsColor space : YUVChroma subsampling : 4:2:0Bit depth : 8 bitsScan type : ProgressiveCompression mode : LossyTitle : http:///*spam*//forum/viewtopic.php?t=4624910Default : YesForced : No
Audio #1ID : 2Format : AC-3Format/Info : Audio Coding 3Mode extension : CM (complete main)Format settings, Endianness : BigCodec ID : A_AC3Duration : 1h 39mnBit rate mode : ConstantBit rate : 640 KbpsChannel(s) : 6 channelsChannel positions : Front: L C R, Side: L R, LFESampling rate : 48.0 KHzBit depth : 16 bitsCompression mode : LossyStream size : 457 MiB (3%)Title : Дубляж | "Мосфильм-Мастер" [BD CEE]Language : RussianDefault : YesForced : No
Audio #2ID : 3Format : AC-3Format/Info : Audio Coding 3Mode extension : CM (complete main)Format settings, Endianness : BigCodec ID : A_AC3Duration : 1h 39mnBit rate mode : ConstantBit rate : 448 KbpsChannel(s) : 6 channelsChannel positions : Front: L C R, Side: L R, LFESampling rate : 48.0 KHzBit depth : 16 bitsCompression mode : LossyStream size : 320 MiB (2%)Title : Закадровый | "Tycoon"Language : RussianDefault : NoForced : No
Audio #3ID : 4Format : AC-3Format/Info : Audio Coding 3Mode extension : CM (complete main)Format settings, Endianness : BigCodec ID : A_AC3Duration : 1h 39mnBit rate mode : ConstantBit rate : 384 KbpsChannel(s) : 6 channelsChannel positions : Front: L C R, Side: L R, LFESampling rate : 48.0 KHzBit depth : 16 bitsCompression mode : LossyStream size : 274 MiB (2%)Title : Закадровый | "Киномания"Language : RussianDefault : NoForced : No
Audio #4ID : 5Format : DTSFormat/Info : Digital Theater SystemsFormat profile : MA / CoreMode : 16Format settings, Endianness : BigCodec ID : A_DTSDuration : 1h 39mnBit rate mode : VariableBit rate : Unknown / 1 509 KbpsChannel(s) : 6 channelsChannel positions : Front: L C R, Side: L R, LFESampling rate : 48.0 KHzBit depth : 16 bitsCompression mode : Lossless / LossyTitle : Закадровый | Владимир КоролёвLanguage : RussianDefault : NoForced : No
Audio #5ID : 6Format : DTSFormat/Info : Digital Theater SystemsFormat profile : MA / CoreMode : 16Format settings, Endianness : BigCodec ID : A_DTSDuration : 1h 39mnBit rate mode : VariableBit rate : Unknown / 1 509 KbpsChannel(s) : 6 channelsChannel positions : Front: L C R, Side: L R, LFESampling rate : 48.0 KHzBit depth : 16 bitsCompression mode : Lossless / LossyTitle : Закадровый | Евгений РудойLanguage : RussianDefault : NoForced : No
Audio #6ID : 7Format : AC-3Format/Info : Audio Coding 3Mode extension : CM (complete main)Format settings, Endianness : BigCodec ID : A_AC3Duration : 1h 39mnBit rate mode : ConstantBit rate : 192 KbpsChannel(s) : 2 channelsChannel positions : Front: L RSampling rate : 48.0 KHzBit depth : 16 bitsCompression mode : LossyStream size : 137 MiB (1%)Title : Закадровий | "Так треба продакшн" на замовлення ТК "Інтер"Language : UkrainianDefault : NoForced : No
Audio #7ID : 8Format : AC-3Format/Info : Audio Coding 3Mode extension : CM (complete main)Format settings, Endianness : BigCodec ID : A_AC3Duration : 1h 39mnBit rate mode : ConstantBit rate : 128 KbpsChannel(s) : 1 channelChannel positions : Front: CSampling rate : 48.0 KHzBit depth : 16 bitsCompression mode : LossyStream size : 91.5 MiB (1%)Title : Закадровий | ТК "ICTV"Language : UkrainianDefault : NoForced : No
Audio #8ID : 9Format : DTSFormat/Info : Digital Theater SystemsFormat profile : MA / CoreMode : 16Format settings, Endianness : BigCodec ID : A_DTSDuration : 1h 39mnBit rate mode : VariableBit rate : Unknown / 1 509 KbpsChannel(s) : 6 channelsChannel positions : Front: L C R, Side: L R, LFESampling rate : 48.0 KHzBit depth : 16 bitsCompression mode : Lossless / LossyTitle : OriginalLanguage : EnglishDefault : NoForced : No
Text #1ID : 10Format : UTF-8Codec ID : S_TEXT/UTF8Codec ID/Info : UTF-8 Plain TextLanguage : RussianDefault : NoForced : No
Text #2ID : 11Format : UTF-8Codec ID : S_TEXT/UTF8Codec ID/Info : UTF-8 Plain TextLanguage : UkrainianDefault : NoForced : No
Text #3ID : 12Format : UTF-8Codec ID : S_TEXT/UTF8Codec ID/Info : UTF-8 Plain TextTitle : FullLanguage : EnglishDefault : NoForced : No
Text #4ID : 13Format : UTF-8Codec ID : S_TEXT/UTF8Codec ID/Info : UTF-8 Plain TextTitle : [SDH]Language : EnglishDefault : NoForced : No
Menu00:00:00.000 : en:01. Christmas Eve00:05:07.474 : en:02. All Aboard00:09:46.920 : en:03. Another Passenger00:15:16.415 : en:04. Hot Chocolate00:18:19.765 : en:05. Ticket on the Loose00:23:08.220 : en:06. Hobo on the Roof00:28:07.519 : en:07. Look Who's Driving00:33:43.688 : en:08. Caribou Conversation00:35:25.290 : en:09. Hitting the Ice00:41:37.328 : en:10. Foresaken Toys00:44:45.016 : en:11. When Christmas Comes to Town00:47:06.157 : en:12. The Polar Express00:49:18.622 : en:13. Where's the Brake?00:53:25.869 : en:14. Steven gets a break00:57:18.435 : en:15. Billy's Present01:01:08.999 : en:16. Elf Action01:05:55.785 : en:17. Readying for Santa01:09:55.191 : en:18. I Believe01:12:56.205 : en:19. First Gift of Christmas01:16:28.250 : en:20. Dash Away All!01:19:37.940 : en:21. Tickets Fully Punched01:21:51.406 : en:22. What Matters01:27:10.058 : en:23. For Whom the Bell Rings01:31:21.142 : en:24. End Credits

Скриншоты

Other forum [Profile] [PM]

Dracula

Longevity: 7 years 1 month

Posts: 11406

Торрент-статистика

Post 01-Jan-2014 17:15 (after 5 days)

Топик был перенесен из форума Мультфильмы (HD) в форум Мультфильмы


Delia
 
Display posts from previous:    
Reply to topic

The time now is: Today 14:50

All times are GMT + 3 Hours



You cannot post new topics in this forum
You cannot reply to topics in this forum
You cannot edit your posts in this forum
You cannot delete your posts in this forum
You cannot vote in polls in this forum
You cannot attach files in this forum
You cannot download files in this forum