Today is a free download without charge Download

Maйoр (Юpий Быкoв) [2013, Россия, криминал, драма, BDRip 720p]

Reply to topic
 
Author
Message

Omen ®

Longevity: 8 years 10 months

Posts: 181086

Торрент-статистика

Post 24-Dec-2013 02:00

[Quote]

Майор

-
-Страна: Россия
Студия: ТПО "Рок"
Жанр: криминал, драма
Год выпуска: 2013
Продолжительность: 01:39:21--Перевод: Не требуется
Cубтитры: английские--Режиссер: Юрий Быков
В ролях: Денис Шведов, Ирина Низина, Илья Исаев, Юрий Быков, Дмитрий Куличков, Кирилл Полухин, Борис Невзоров--Описание: В день долгожданных родов своей жены майор полиции Сергей Соболев мчится в роддом вне себя от счастья. На скользкой зимней дороге он насмерть сбивает семилетнего мальчика на глазах у несчастной матери. Превышение скорости, неосторожность и пешеходный переход — доказательства очевидны, как и нежелание молодого отца угодить за решетку. Майор использует свое служебное положение, чтобы оправдать себя… Сам того не желая, он запускает целую череду смертей, остановить которую решится слишком поздно.--imdb | kinopoisk | Сэмпл--Тип релиза: BDRip 720p [Mayor 2013 720p BluRay DD5.1 x264-CRiSC]
Контейнер: MKV
Видео: MPEG-4 AVC / 5832 kbps / 1280x536 / 24 fps / 2,40:1 / High Profile 4.1
Аудио 1: Russian AC3 / 5.1 / 48 kHz / 640 kbps / 16 bits
Формат субтитров: softsub [SRT; Blu-ray/PGS/SUP]

MediaInfo

Код:
Общее
Уникальный идентификатор                 : 249700821733548298672711325677509062275 (0xBBDAA1044646D8F4BD728414104AAE83)
Полное имя                               : G:\HD\Mayor 2013 720p BluRay DD5.1 x264-CRiSC\Mayor.2013.720p.BluRay.DD5.1.x264-CRiSC.mkv
Формат                                   : Matroska
Версия формата                           : Version 4 / Version 2
Размер файла                             : 4,58 Гбайт
Продолжительность                        : 1 ч. 39 м.
Общий поток                              : 6604 Кбит/сек
Дата кодирования                         : UTC 2013-12-14 11:53:19
Программа кодирования                    : mkvmerge v6.6.0 ('The Edge Of The In Between') built on Dec  1 2013 17:55:00
Библиотека кодирования                   : libebml v1.3.0 + libmatroska v1.4.1
Видео
Идентификатор                            : 1
Формат                                   : AVC
Формат/Информация                        : Advanced Video Codec
Профиль формата                          : [email protected]
Параметр CABAC формата                   : Да
Параметр ReFrames формата                : 11 кадров
Идентификатор кодека                     : V_MPEG4/ISO/AVC
Продолжительность                        : 1 ч. 39 м.
Битрейт                                  : 5832 Кбит/сек
Ширина                                   : 1280 пикселей
Высота                                   : 536 пикселей
Соотношение сторон                       : 2,40:1
Режим частоты кадров                     : Постоянный
Частота кадров                           : 24,000 кадра/сек
Цветовое пространство                    : YUV
Субдискретизация насыщенности            : 4:2:0
Битовая глубина                          : 8 бит
Тип развёртки                            : Прогрессивная
Бит/(Пиксели*Кадры)                      : 0.354
Размер потока                            : 4,05 Гбайт (88%)
Заголовок                                : Mayor (2013)
Библиотека кодирования                   : x264 core 140 r2377kMod 1ca7bb9
Настройки программы                      : cabac=1 / ref=11 / deblock=1:-3:-3 / analyse=0x3:0x133 / me=umh / subme=11 / psy=1 / fade_compensate=0.00 / psy_rd=1.10:0.00 / mixed_ref=1 / me_range=64 / chroma_me=1 / trellis=2 / 8x8dct=1 / cqm=0 / deadzone=21,11 / fast_pskip=0 / chroma_qp_offset=-2 / threads=12 / lookahead_threads=3 / sliced_threads=0 / nr=0 / decimate=0 / interlaced=0 / bluray_compat=0 / constrained_intra=0 / fgo=0 / bframes=11 / b_pyramid=2 / b_adapt=2 / b_bias=0 / direct=3 / weightb=1 / open_gop=0 / weightp=2 / keyint=250 / keyint_min=24 / scenecut=40 / intra_refresh=0 / rc_lookahead=40 / rc=crf / mbtree=0 / crf=16.6000 / qcomp=0.75 / qpmin=0 / qpmax=69 / qpstep=4 / vbv_maxrate=50000 / vbv_bufsize=62500 / crf_max=0.0 / nal_hrd=none / filler=0 / ip_ratio=1.40 / pb_ratio=1.30 / aq=1:0.80 / zones=971,2257,crf=13
Язык                                     : Russian
Default                                  : Да
Forced                                   : Нет
Основные цвета                           : BT.709
Характеристики трансфера                 : BT.709
Коэффициенты матрицы                     : BT.709
Аудио
Идентификатор                            : 2
Формат                                   : AC-3
Формат/Информация                        : Audio Coding 3
Расширение режима                        : CM (complete main)
Параметр Endianness формата              : Big
Идентификатор кодека                     : A_AC3
Продолжительность                        : 1 ч. 39 м.
Вид битрейта                             : Постоянный
Битрейт                                  : 640 Кбит/сек
Каналы                                   : 6 каналов
Расположение каналов                     : Front: L C R, Side: L R, LFE
Частота                                  : 48,0 КГц
Битовая глубина                          : 16 бит
Метод сжатия                             : С потерями
Размер потока                            : 455 Мбайт (10%)
Заголовок                                : AC3 5.1 @ 640 kbps
Язык                                     : Russian
Default                                  : Да
Forced                                   : Нет
Текст #1
Идентификатор                            : 3
Формат                                   : PGS
Режим смешивания                         : zlib
Идентификатор кодека                     : S_HDMV/PGS
Идентификатор кодека/Информация          : The same subtitle format used on BDs/HD-DVDs
Заголовок                                : SUP
Язык                                     : English
Default                                  : Нет
Forced                                   : Нет
Текст #2
Идентификатор                            : 4
Формат                                   : UTF-8
Идентификатор кодека                     : S_TEXT/UTF8
Идентификатор кодека/Информация          : UTF-8 Plain Text
Заголовок                                : SRT
Язык                                     : English
Default                                  : Нет
Forced                                   : Нет
Меню
00:00:00.000                             : en:00:00:00.000
00:00:41.000                             : en:00:00:41.000
00:08:35.583                             : en:00:08:35.583
00:23:31.875                             : en:00:23:31.875
00:29:56.750                             : en:00:29:56.750
00:44:46.083                             : en:00:44:46.083
01:02:40.875                             : en:01:02:40.875
01:12:17.667                             : en:01:12:17.667
01:17:41.958                             : en:01:17:41.958

Скриншоты


Mayor 2013 720p BluRay DD5.1 x264-CRiSC

Код:
RELEASE:
          RELEASE.NAME....: Mayor.2013.720p.BluRay.DD5.1.x264-CRiSC.mkv
          IMDb............: http://www.imdb.com/title/tt2594950/
          RUNTiME.........: 01:39:21
          SiZE............: 4.58 GB
          ViDEO.CODEC.....: x264
          FRAMERATE.......: 24
          BiTRATE.........: 5959 kbps
          RESOLUTiON......: 1280x536
          AUDiO...........: Russian AC3 5.1 640 kbps
          CHAPTERS........: Yes
          SUBTiTLES.......: English .sup .srt
          ENCODER.........: Kuningas
          RELEASE.DATE....: 14.12.2013
          x264:
          x264 [info]: profile High, level 4.1
          x264 [info]: frame I:738   Avg QP:13.84  size:111960
          x264 [info]: frame P:29283 Avg QP:15.71  size: 56292
          x264 [info]: frame B:113047 Avg QP:17.86  size: 23965
          x264 [info]: consecutive B-frames:  2.0%  3.1%  7.1% 13.0% 13.3% 41.8%  6.5%  1.7%  3.6%  1.4%  2.5%  4.1%
          encoded 143068 frames, 6.28 fps, 5958.78 kb/s
SOURCE - FILTERED - ENCODE


Other forum [Profile] [PM]
Display posts from previous:    
Reply to topic

The time now is: Today 04:34

All times are GMT + 3 Hours



You cannot post new topics in this forum
You cannot reply to topics in this forum
You cannot edit your posts in this forum
You cannot delete your posts in this forum
You cannot vote in polls in this forum
You cannot attach files in this forum
You cannot download files in this forum