Today is a free download without charge Download

Discovery: Патрик Демпси в гонке Ле-Мана. Серия 2 / Patrick Dempsey racing Le Mans (2013) SATRip

Reply to topic
 
Author
Message

UndegraundMen ®

Longevity: 7 years 7 months

Posts: 25145

Торрент-статистика

Post 22-Dec-2013 16:08

[Quote]

Discovery: Патрик Демпси в гонке Ле-Мана. Серия 2 / Patrick Dempsey racing Le Mans (2013) SATRip - Режиссер / Телекомпания: Discovery
Русское название: Патрик Демпси в гонке Ле-Мана
Оригинальное название: Patrick Dempsey racing Le Mans
Год выпуска: 2013
Жанр: Документальный, автоспорт, познавательный
Выпущено: Discovery Channel
Описание:
В 2013 году Патрик Демпси, звезда сериала «Анатомия страсти», объявил о своем решении полностью посвятить себя автоспорту. Обладатель коллекции ретро-автомобилей и большой любитель гонок, Демпси собирается принять участие в изнурительном соревновании на выносливость – знаменитой гонке «24 часа Ле-Мана».
Новая четырехсерийная программа Discovery Channel «Патрик Демпси в гонке Ле-Мана» раскроет неизвестную сторону актера. Вы увидите, как Демпси со своей командой готовится к автомобильному состязанию, которое по своему масштабу сродни восхождению на Эверест. Теперь его будни состоят из поиска спонсоров, квалификационных заездов и бесконечных тренировок. Однако, несмотря на все трудности, Демпси твердо намерен покорить один из старейших треков Европы за рулем знаменитого Porsche 911 GT3 RSR. Вместе с ним вы совершите увлекательную экскурсию по трассе «Сарта», а также узнаете удивительные факты из мира больших гонок.
Режиссер: Пол Краудер, Барри A.O'Брайен, Гарри Ватсон, Дуг Рат, Филлип Гессет
Актеры: Патрик Демпси
Перевод: Профессиональный (одноголосый, закадровый)
Продолжительность: 00:43:31
Видеокодек: XVID
Качество видео: SATRip
Битрейт видео: ~1650 kb/s
Размер кадра: 704 x 400
Аудиокодек: MP3, 2.0ch.
Битрейт аудио: 128 kb/s

MediaInfo:

Формат : AVI
Формат/Информация : Audio Video Interleave
Размер файла : 556 Мбайт
Продолжительность : 43 м.
Общий поток : 1785 Кбит/сек
Программа кодирования : TMPGEnc Video Mastering Works 5 Version. 5.0.6.38
Библиотека кодирования : TMPGEnc Video Mastering Works 5 Version. 5.0.6.38
Видео
Идентификатор : 0
Формат : MPEG-4 Visual
Профиль формата : Advanced [email protected]
Параметр BVOP формата : 2
Параметр QPel формата : Нет
Параметр GMC формата : Без точки перехода
Параметр матрицы формата : Default (H.263)
Режим смешивания : Сжатый битовый поток
Идентификатор кодека : XVID
Идентификатор кодека/Подсказка : XviD
Продолжительность : 43 м.
Битрейт : 1650 Кбит/сек
Ширина : 704 пикселя
Высота : 400 пикселей
Соотношение сторон : 16:9
Частота кадров : 23,976 кадра/сек
Цветовое пространство : YUV
Субдискретизация насыщенности : 4:2:0
Битовая глубина : 8 бит
Тип развёртки : Прогрессивная
Метод сжатия : С потерями
Бит/(Пиксели*Кадры) : 0.244
Размер потока : 513 Мбайт (92%)
Библиотека кодирования : XviD 64
Аудио
Идентификатор : 1
Формат : MPEG Audio
Версия формата : Version 1
Профиль формата : Layer 3
Режим : Joint stereo
Расширение режима : MS Stereo
Идентификатор кодека : 55
Идентификатор кодека/Подсказка : MP3
Продолжительность : 43 м.
Вид битрейта : Постоянный
Битрейт : 128 Кбит/сек
Каналы : 2 канала
Частота : 48,0 КГц
Метод сжатия : С потерями
Размер потока : 39,8 Мбайт (7%)
Выравнивание : Соединение по промежуткам
Продолжительность промежутка : 250 мс. (5,99 видеокадров)
Время предзагрузки промежутка : 432 мс.

В выпуске:

Команда испытывает денежные затруднения. Патрик Демпси пробует свои силы в старейшей гонке на выживание. Узнайте все о жизни Патрика и его команды «Porsche 911 GT3 RSR», от поиска спонсоров до заездов на время.
Скриншоты:          Время раздачи: 24/7. До первых 5 скачавших.
Other forum [Profile] [PM]
Display posts from previous:    
Reply to topic

The time now is: Today 13:48

All times are GMT + 3 Hours



You cannot post new topics in this forum
You cannot reply to topics in this forum
You cannot edit your posts in this forum
You cannot delete your posts in this forum
You cannot vote in polls in this forum
You cannot attach files in this forum
You cannot download files in this forum