Today is a free download without charge Download

Discovery: Патрик Демпси в гонке Ле-Мана. Серия 3 / Patrick Dempsey racing Le Mans (2013) SATRip

Reply to topic
 
Author
Message

UndegraundMen ®

Longevity: 7 years 7 months

Posts: 25145

Торрент-статистика

Post 22-Dec-2013 16:08

[Quote]

Discovery: Патрик Демпси в гонке Ле-Мана. Серия 3 / Patrick Dempsey racing Le Mans (2013) SATRip - Режиссер / Телекомпания: Discovery
Русское название: Патрик Демпси в гонке Ле-Мана
Оригинальное название: Patrick Dempsey racing Le Mans
Год выпуска: 2013
Жанр: Документальный, автоспорт, познавательный
Выпущено: Discovery Channel
Описание:
В 2013 году Патрик Демпси, звезда сериала «Анатомия страсти», объявил о своем решении полностью посвятить себя автоспорту. Обладатель коллекции ретро-автомобилей и большой любитель гонок, Демпси собирается принять участие в изнурительном соревновании на выносливость – знаменитой гонке «24 часа Ле-Мана».
Новая четырехсерийная программа Discovery Channel «Патрик Демпси в гонке Ле-Мана» раскроет неизвестную сторону актера. Вы увидите, как Демпси со своей командой готовится к автомобильному состязанию, которое по своему масштабу сродни восхождению на Эверест. Теперь его будни состоят из поиска спонсоров, квалификационных заездов и бесконечных тренировок. Однако, несмотря на все трудности, Демпси твердо намерен покорить один из старейших треков Европы за рулем знаменитого Porsche 911 GT3 RSR. Вместе с ним вы совершите увлекательную экскурсию по трассе «Сарта», а также узнаете удивительные факты из мира больших гонок.
Режиссер: Пол Краудер, Барри A.O'Брайен, Гарри Ватсон, Дуг Рат, Филлип Гессет
Актеры: Патрик Демпси
Перевод: Профессиональный (одноголосый, закадровый)
Продолжительность: 00:44:05
Видеокодек: XVID
Качество видео: SATRip
Битрейт видео: ~1633 kb/s
Размер кадра: 704 x 400
Аудиокодек: MP3, 2.0ch.
Битрейт аудио: 128 kb/s

MediaInfo:

Формат : AVI
Формат/Информация : Audio Video Interleave
Размер файла : 558 Мбайт
Продолжительность : 44 м.
Общий поток : 1770 Кбит/сек
Программа кодирования : VirtualDubMod 1.5.10.2 (build 2540/release)
Библиотека кодирования : VirtualDubMod build 2540/release
Видео
Идентификатор : 0
Формат : MPEG-4 Visual
Профиль формата : Advanced [email protected]
Параметр BVOP формата : 1
Параметр QPel формата : Нет
Параметр GMC формата : Без точки перехода
Параметр матрицы формата : Default (H.263)
Идентификатор кодека : XVID
Идентификатор кодека/Подсказка : XviD
Продолжительность : 44 м.
Битрейт : 1633 Кбит/сек
Ширина : 704 пикселя
Высота : 400 пикселей
Соотношение сторон : 16:9
Частота кадров : 25,000 кадров/сек
Цветовое пространство : YUV
Субдискретизация насыщенности : 4:2:0
Битовая глубина : 8 бит
Тип развёртки : Прогрессивная
Метод сжатия : С потерями
Бит/(Пиксели*Кадры) : 0.232
Размер потока : 515 Мбайт (92%)
Библиотека кодирования : XviD 1.2.1 (UTC 2008-12-04)
Аудио
Идентификатор : 1
Формат : MPEG Audio
Версия формата : Version 1
Профиль формата : Layer 3
Идентификатор кодека : 55
Идентификатор кодека/Подсказка : MP3
Продолжительность : 44 м.
Вид битрейта : Постоянный
Битрейт : 128 Кбит/сек
Каналы : 2 канала
Частота : 44,1 КГц
Метод сжатия : С потерями
Размер потока : 40,3 Мбайт (7%)
Выравнивание : Разделение по промежуткам
Продолжительность промежутка : 40 мс. (1,00 видеокадр)
Время предзагрузки промежутка : 500 мс.
Библиотека кодирования : LAME3.98r
Настройки программы : -m s -V 4 -q 2 -lowpass 17 -b 128

В выпуске:

Патрик Демпси пробует свои силы с новой командой и новой машиной в разных этапах разных гонок на пути к Ле-Ману. Узнайте все о жизни Патрика и его команды от личных тренировок и поиска спонсоров до заездов на время, побед и поражений.
Скриншоты:          Время раздачи: 24/7. До первых 5 скачавших.
Other forum [Profile] [PM]
Display posts from previous:    
Reply to topic

The time now is: Today 06:10

All times are GMT + 3 Hours



You cannot post new topics in this forum
You cannot reply to topics in this forum
You cannot edit your posts in this forum
You cannot delete your posts in this forum
You cannot vote in polls in this forum
You cannot attach files in this forum
You cannot download files in this forum