Today is a free download without charge Download

Discovery: Мотореставрация. Под чутким руководством / Philly throttle. Under the guidance (2013) SATRip

Reply to topic
 
Author
Message

UndegraundMen ®

Longevity: 7 years 7 months

Posts: 25145

Торрент-статистика

Post 22-Dec-2013 16:08

[Quote]

Discovery: Мотореставрация. Под чутким руководством / Philly throttle. Under the guidance (2013) SATRip - Режиссер / Телекомпания: Discovery
Русское название: Мотореставрация. Под чутким руководством
Оригинальное название: Philly throttle. Under the guidance
Год выпуска: 2013
Жанр: Документальный, познавательное шоу
Выпущено: Discovery Channel
Описание:
Жизнь специалиста по винтажным мотоциклам Адама Крамера и его разношерстной команды, которые реставрируют и продают мотоциклы в гараже «Liberty Vintage Cycles» в Филадельфии.
В выпуске: Адам с командой должен всего за 4 дня и за $500 запустить двигатель чоппера "BSA". Еще ему предстоит восстановление классического "DUCATI 250" 1965 года, вписавшись в смету $2000. И, о чудо, Адам получает водительские права впервые за 27 лет!
Режиссер: Ян Арвас
Актеры: Адам Крамер
Перевод: Профессиональный (одноголосый, закадровый)
Продолжительность: 00:43:30
Видеокодек: XVID
Качество видео: SATRip
Битрейт видео: ~1335 kb/s
Размер кадра: 704 x 400
Аудиокодек: MP3, 2.0ch.
Битрейт аудио: 128 kb/s

MediaInfo:

Формат : AVI
Формат/Информация : Audio Video Interleave
Размер файла : 458 Мбайт
Продолжительность : 43 м.
Общий поток : 1473 Кбит/сек
Программа кодирования : VirtualDubMod 1.5.10.2 (build 2542/release)
Библиотека кодирования : VirtualDubMod build 2542/release
Видео
Идентификатор : 0
Формат : MPEG-4 Visual
Профиль формата : Advanced [email protected]
Параметр BVOP формата : 1
Параметр QPel формата : Нет
Параметр GMC формата : Без точки перехода
Параметр матрицы формата : Default (H.263)
Идентификатор кодека : XVID
Идентификатор кодека/Подсказка : XviD
Продолжительность : 43 м.
Битрейт : 1335 Кбит/сек
Ширина : 704 пикселя
Высота : 400 пикселей
Соотношение сторон : 16:9
Частота кадров : 25,000 кадров/сек
Цветовое пространство : YUV
Субдискретизация насыщенности : 4:2:0
Битовая глубина : 8 бит
Тип развёртки : Прогрессивная
Метод сжатия : С потерями
Бит/(Пиксели*Кадры) : 0.190
Размер потока : 415 Мбайт (91%)
Библиотека кодирования : XviD 1.2.1 (UTC 2008-12-04)
Аудио
Идентификатор : 1
Формат : MPEG Audio
Версия формата : Version 1
Профиль формата : Layer 3
Идентификатор кодека : 55
Идентификатор кодека/Подсказка : MP3
Продолжительность : 43 м.
Вид битрейта : Постоянный
Битрейт : 128 Кбит/сек
Каналы : 2 канала
Частота : 44,1 КГц
Метод сжатия : С потерями
Задержка видео : 5 мс.
Размер потока : 39,8 Мбайт (9%)
Выравнивание : Разделение по промежуткам
Продолжительность промежутка : 40 мс. (1,00 видеокадр)
Время предзагрузки промежутка : 500 мс.
Библиотека кодирования : LAMEЄ!"ЃQЧуG5eЂp –
Скриншоты:                    Время раздачи: 24/7. До первых 5 скачавших.
Other forum [Profile] [PM]
Display posts from previous:    
Reply to topic

The time now is: Today 18:31

All times are GMT + 3 Hours



You cannot post new topics in this forum
You cannot reply to topics in this forum
You cannot edit your posts in this forum
You cannot delete your posts in this forum
You cannot vote in polls in this forum
You cannot attach files in this forum
You cannot download files in this forum