Today is a free download without charge Download

Точка, точка, запятая... (Александр Митта)[1972.,Семейный, Детский, Мелодрама] DVDRip

Reply to topic
 
Author
Message

sashau ®

Gender:

Longevity: 9 years 6 months

Posts: 3497

Торрент-статистика

Post 18-Dec-2013 16:20

[Quote]

Точка, точка, запятая... - Год выпуска: 1972
Жанр: Семейный, Детский, Мелодрама
Описание фильма:
История о смешном и нелепом мальчишке, которого, кажется, никто не воспринимает всерьез: ни учителя, ни ровесники. Но вот однажды в его классе появляется новенькая, с которой ему удается подружиться.
- Это картина о четырнадцатилетних, - рассказывает режиссер, - а в этом возрасте впервые начинаешь ощущать себя личностью. Мы и хотим рассказать о том, как складывается человек, как начинается этот процесс. Школьный класс - удобная модель для рассмотрения этой проблемы. И одновременно мы хотим показать на экране коллективный портрет современной школы («Советский экран» № 3, февраль 1972 года).
Режиссер: Александр Митта
Актеры: Сережа Данченко, Миша Козловский, Оля Рыжникова, Юрий Никулин, Заза Киквидзе, Марина Щербова, Люда Сухова, Андрей Васильев, Евгений Перов, Евгений Герасимов, Жанна Прохоренко, Татьяна Никулина, Наталья Селезнева, К.Страчук, Владимир Заманский
Продолжительность: 01:18:49
Качество видео: DVDRip

Видеокодек: Xvid
Битрейт видео: ~2282 kbps
Размер кадра: 704 x 368
Аудиокодек: AC3 2.0
Битрейт аудио: 192 kbps

MediaInfo

To4ka.Zapataia.1972.DVDRip.avi
Format : AVI
Format/Info : Audio Video Interleave
File size : 1.37 GiB
Duration : 1h 18mn
Overall bit rate : 2 481 Kbps
Writing application : VirtualDubMod 1.5.4.1 (build 2178/release)
Writing library : VirtualDubMod build 2178/release
Video
ID : 0
Format : MPEG-4 Visual
Format profile : Advanced [email protected]
Format settings, BVOP : No
Format settings, QPel : No
Format settings, GMC : No warppoints
Format settings, Matrix : Custom
Codec ID : XVID
Codec ID/Hint : XviD
Duration : 1h 18mn
Bit rate : 2 282 Kbps
Width : 704 pixels
Height : 368 pixels
Display aspect ratio : 1.913
Frame rate : 25.000 fps
Color space : YUV
Chroma subsampling : 4:2:0
Bit depth : 8 bits
Scan type : Progressive
Compression mode : Lossy
Bits/(Pixel*Frame) : 0.352
Stream size : 1.26 GiB (92%)
Writing library : XviD 1.3.0.dev55
Audio
ID : 1
Format : AC-3
Format/Info : Audio Coding 3
Mode extension : CM (complete main)
Format settings, Endianness : Big
Codec ID : 2000
Duration : 1h 18mn
Bit rate mode : Constant
Bit rate : 192 Kbps
Channel count : 2 channels
Channel positions : Front: L R
Sampling rate : 48.0 KHz
Bit depth : 16 bits
Compression mode : Lossy
Stream size : 108 MiB (8%)
Alignment : Split accross interleaves
Interleave, duration : 96 ms (2.40 video frames)
Interleave, preload duration : 96 ms
Language : Russian
Скриншоты:
         
         
Other forum [Profile] [PM]
Display posts from previous:    
Reply to topic

The time now is: Today 14:58

All times are GMT + 3 Hours



You cannot post new topics in this forum
You cannot reply to topics in this forum
You cannot edit your posts in this forum
You cannot delete your posts in this forum
You cannot vote in polls in this forum
You cannot attach files in this forum
You cannot download files in this forum