Today is a free download without charge Download

Посторонним вход разрешен (Йозеф Пинкава)[1986.,Детский, Семейный, Приключения] TVRip

Reply to topic
 
Author
Message

sashau ®

Gender:

Longevity: 9 years 6 months

Posts: 3497

Торрент-статистика

Post 18-Dec-2013 16:17

[Quote]

Посторонним вход разрешен - Год выпуска: 1986
Производство: СССР, Чехословакия
Жанр: Детский, Семейный, Приключения
Описание фильма:
По мотивам произведений Наталии Дуровой. Приключения двух московских мальчишек, приехавшей к ним в гости из Чехословакии девочки и их четвероногих питомцев — Риты и Маркиза.
В фильме снимались легендарный клоун Олег Попов и дрессировщица Наталья Дурова.
Режиссер: Йозеф Пинкава
Актеры: Яна Паленичкова, Антон Самулеев, Вадим Хрычкин, Наталья Варлей, Ева Якубкова, Евгений Герасимов, Мирослав Мейзлик, Наталия Дурова, Олег Попов, Любомир Липский ст., Раиса Рязанова, Здена Гадрболцова, Любовь Германова, Виктор Борисов, Константин Захарченко, Леонид Харитонов, Милена Марцилисова, Франтишек Хоудек, Антон Створа, Эва Маталова, Марцела Хлупова, Владимир Епископосян, Зинаида Кулакова
Продолжительность: 01:13:58
Качество видео: TVRip

Видеокодек: Xvid
Битрейт видео: ~1532 Kbps
Размер кадра: 640 x 480
Аудиокодек: MP3, 2 ch
Битрейт аудио: 192 kbps

MediaInfo

Postoronnim.Vhod.Razreshen.SATRip.avi
Format : AVI
Format/Info : Audio Video Interleave
File size : 918 MiB
Duration : 1h 13mn
Overall bit rate : 1 734 Kbps
Writing library : VirtualDub build 29808/release
Video
ID : 0
Format : MPEG-4 Visual
Format profile : Advanced [email protected]
Format settings, BVOP : 2
Format settings, QPel : No
Format settings, GMC : No warppoints
Format settings, Matrix : Default (H.263)
Muxing mode : Packed bitstream
Codec ID : XVID
Codec ID/Hint : XviD
Duration : 1h 13mn
Bit rate : 1 532 Kbps
Width : 640 pixels
Height : 480 pixels
Display aspect ratio : 4:3
Frame rate : 25.000 fps
Color space : YUV
Chroma subsampling : 4:2:0
Bit depth : 8 bits
Scan type : Progressive
Compression mode : Lossy
Bits/(Pixel*Frame) : 0.200
Stream size : 811 MiB (88%)
Writing library : XviD 1.0.3 (UTC 2004-12-20)
Audio
ID : 1
Format : MPEG Audio
Format version : Version 1
Format profile : Layer 3
Mode : Joint stereo
Codec ID : 55
Codec ID/Hint : MP3
Duration : 1h 13mn
Bit rate mode : Constant
Bit rate : 192 Kbps
Channel count : 2 channels
Sampling rate : 48.0 KHz
Compression mode : Lossy
Stream size : 102 MiB (11%)
Alignment : Split accross interleaves
Interleave, duration : 40 ms (1.00 video frame)
Interleave, preload duration : 500 ms
Скриншоты:
         
Other forum [Profile] [PM]
Display posts from previous:    
Reply to topic

The time now is: Today 11:30

All times are GMT + 3 Hours



You cannot post new topics in this forum
You cannot reply to topics in this forum
You cannot edit your posts in this forum
You cannot delete your posts in this forum
You cannot vote in polls in this forum
You cannot attach files in this forum
You cannot download files in this forum