Today is a free download without charge Download

Поезд со станции детства (Хабиб (Хабибулло) Файзиев, Абдужалил Бурибаев)[1986.,Детский] VHSRip

Reply to topic
 
Author
Message

sashau ®

Gender:

Longevity: 9 years 6 months

Posts: 3497

Торрент-статистика

Post 18-Dec-2013 16:08

[Quote]

Поезд со станции детства - Год выпуска: 1986
Жанр: Детский
Описание фильма:
События в фильме разворачиваются вокруг детской железной дороги. Юным железнодорожникам приходится противостоять хулиганским действиям группы подростков. Один из них, Камил, задержанный после очередного нападения на опустевшую станцию железной дороги, знакомится с ее начальником, Тахиром Усмановичем, и юными железнодорожниками. Встретив с их стороны сочувствие, доброе отношение к себе, Камил переоценил свои поступки и привел своих друзей на детскую железную дорогу.
Режиссер: Хабиб (Хабибулло) Файзиев, Абдужалил Бурибаев
Актеры: Адыл Зайнутдинов, Гуля Мухутдинова, Бахром Хамидов, Казим Каюмов, С. Тиньгаев, Альберт и Рустам Гилязовы
Продолжительность: 02:11:19
Качество видео: VHSRip

Видеокодек: DivX 5
Битрейт видео: ~1376 Kbps
Размер кадра: 720 x 544
Аудиокодек: MP3, 2 ch
Битрейт аудио: 128 Kbps

MediaInfo

Поезд со станции Детство.avi
Format : AVI
Format/Info : Audio Video Interleave
File size : 1.37 GiB
Duration : 2h 11mn
Overall bit rate mode : Variable
Overall bit rate : 1 491 Kbps
Writing application : VirtualDubMod 1.5.4.1 (build 2178/release)
Writing library : VirtualDubMod build 2178/release
Video
ID : 0
Format : MPEG-4 Visual
Format settings, BVOP : Yes
Format settings, QPel : No
Format settings, GMC : No warppoints
Format settings, Matrix : Default (H.263)
Codec ID : DX50
Codec ID/Hint : DivX 5
Duration : 2h 11mn
Bit rate : 1 376 Kbps
Width : 720 pixels
Height : 544 pixels
Display aspect ratio : 4:3
Frame rate : 25.000 fps
Color space : YUV
Chroma subsampling : 4:2:0
Bit depth : 8 bits
Scan type : Progressive
Compression mode : Lossy
Bits/(Pixel*Frame) : 0.141
Stream size : 1.26 GiB (92%)
Writing library : DivX 5.2.1 (WaffleDay) (UTC 2004-09-08)
Audio
ID : 1
Format : MPEG Audio
Format version : Version 1
Format profile : Layer 3
Mode : Joint stereo
Codec ID : 55
Codec ID/Hint : MP3
Duration : 2h 11mn
Bit rate mode : Variable
Bit rate : 102 Kbps
Nominal bit rate : 128 Kbps
Channel count : 2 channels
Sampling rate : 48.0 KHz
Compression mode : Lossy
Stream size : 96.0 MiB (7%)
Alignment : Aligned on interleaves
Interleave, duration : 24 ms (0.60 video frame)
Interleave, preload duration : 499 ms
Writing library : LAME3.97
Encoding settings : -m j -V 4 -q 2 -lowpass 17 --abr 128
Скриншоты:
         
Other forum [Profile] [PM]
Display posts from previous:    
Reply to topic

The time now is: Today 12:17

All times are GMT + 3 Hours



You cannot post new topics in this forum
You cannot reply to topics in this forum
You cannot edit your posts in this forum
You cannot delete your posts in this forum
You cannot vote in polls in this forum
You cannot attach files in this forum
You cannot download files in this forum