Today is a free download without charge Download

Discovery: Золотая лихорадка. Южная Америка. Серия 1 / Gold Rush. South America (2013) SATRip

Reply to topic
 
Author
Message

UndegraundMen ®

Longevity: 7 years 7 months

Posts: 25145

Торрент-статистика

Post 18-Dec-2013 04:46

[Quote]

Discovery: Золотая лихорадка. Южная Америка. Серия 1 / Gold Rush. South America (2013) SATRip - Режиссер / Телекомпания: Discovery
Русское название: Золотая лихорадка. Южная Америка
Оригинальное название: Gold Rush. South America
Год выпуска: 2013
Жанр: Документальный, научно-познавательный, природа, география, путешествия, приключения, исследование
Выпущено: CША, Discovery Channel
Описание:
Оставив позади шахту на Клондайке, Тодд обращает свой взгляд на Южную Америку и вместе с командой отправляется в Перу. Но удастся ли им разбогатеть в стране безжалостных джунглей?
Режиссер: Кристофер Голдинг
В выпуске: 01. Перуанское золото / Peruvian Gold
Перевод: Профессиональный одноголосый
Продолжительность: 00:43:51
Видеокодек: XVID
Качество видео: SATRip
Битрейт видео: ~1570 kb/s
Размер кадра: 704 x 400
Аудиокодек: MP3, 2.0ch.
Битрейт аудио: 128 kb/s

MediaInfo:

Формат : AVI
Формат/Информация : Audio Video Interleave
Размер файла : 535 Мбайт
Продолжительность : 43 м.
Общий поток : 1706 Кбит/сек
Программа кодирования : VirtualDubMod 1.5.10.2 (build 2540/release)
Библиотека кодирования : VirtualDubMod build 2540/release
Видео
Идентификатор : 0
Формат : MPEG-4 Visual
Профиль формата : Advanced [email protected]
Параметр BVOP формата : 2
Параметр QPel формата : Нет
Параметр GMC формата : Без точки перехода
Параметр матрицы формата : Default (MPEG)
Идентификатор кодека : XVID
Идентификатор кодека/Подсказка : XviD
Продолжительность : 43 м.
Битрейт : 1568 Кбит/сек
Ширина : 704 пикселя
Высота : 400 пикселей
Соотношение сторон : 16:9
Частота кадров : 25,000 кадров/сек
Цветовое пространство : YUV
Субдискретизация насыщенности : 4:2:0
Битовая глубина : 8 бит
Тип развёртки : Прогрессивная
Метод сжатия : С потерями
Бит/(Пиксели*Кадры) : 0.223
Размер потока : 492 Мбайт (92%)
Библиотека кодирования : XviD 1.2.1 (UTC 2008-12-04)
Аудио
Идентификатор : 1
Формат : MPEG Audio
Версия формата : Version 1
Профиль формата : Layer 3
Идентификатор кодека : 55
Идентификатор кодека/Подсказка : MP3
Продолжительность : 43 м.
Вид битрейта : Постоянный
Битрейт : 128 Кбит/сек
Каналы : 2 канала
Частота : 48,0 КГц
Метод сжатия : С потерями
Размер потока : 40,2 Мбайт (8%)
Выравнивание : Соединение по промежуткам
Продолжительность промежутка : 40 мс. (1,00 видеокадр)
Время предзагрузки промежутка : 504 мс.
Скриншоты:                    Время раздачи: 24/7. До первых 5 скачавших.
Rip by sergo7008
Other forum [Profile] [PM]
Display posts from previous:    
Reply to topic

The time now is: Today 12:51

All times are GMT + 3 Hours



You cannot post new topics in this forum
You cannot reply to topics in this forum
You cannot edit your posts in this forum
You cannot delete your posts in this forum
You cannot vote in polls in this forum
You cannot attach files in this forum
You cannot download files in this forum