Today is a free download without charge Download

Discovery: Из чего это сделано? (Сезон 9, Серия 15) / How do they do it? (2012) HDTVRip

Reply to topic
 
Author
Message

UndegraundMen ®

Longevity: 7 years 7 months

Posts: 25145

Торрент-статистика

Post 17-Dec-2013 23:32

[Quote]

Discovery: Из чего это сделано? (Сезон 9, Серия 15) / How do they do it? (2012) HDTVRip - Режиссер / Телекомпания: Discovery
Русское название: Из чего это сделано?
Оригинальное название: How do they do it?
Год выпуска: 2012
Жанр: Документальный, научно-популярный
Выпущено: Канада, Великобритания, Rocket Surgery Productions, WAGtv
Описание:
За обычными предметами, окружающими нас в жизни, стоит что-то необычное. Невероятные истории о блестящих решениях проблем, о существовании которых многие из нас даже не знали. Так какие же тайны скрываются за повседневными вещами, которые мы воспринимаем как само собой разумеющееся?
Режиссер: Ричард Стансфилд
Ведущие: Крис Бройлес
В выпуске: Текила; Система пароснабжения Нью-Йорка; Мороженое
Текст читал: Владимир Рыбаченко
Озвучено: Студия Кирилица
Перевод: Профессиональный одноголосый
Продолжительность: 00:21:53
Видеокодек: XVID
Качество видео: HDTVRip
Битрейт видео: ~1383 kb/s
Размер кадра: 672 x 372
Аудиокодек: MP3, 1.0ch.
Битрейт аудио: 85 kb/s

MediaInfo:

Формат : AVI
Формат/Информация : Audio Video Interleave
Размер файла : 232 Мбайт
Продолжительность : 21 м.
Режим общего битрейта : Переменный
Общий поток : 1484 Кбит/сек
Программа кодирования : XviD4PSP 6.0 / 53.6.0
Видео
Идентификатор : 0
Формат : MPEG-4 Visual
Профиль формата : Advanced [email protected]
Параметр BVOP формата : 2
Параметр QPel формата : Нет
Параметр GMC формата : Без точки перехода
Параметр матрицы формата : Default (H.263)
Режим смешивания : Сжатый битовый поток
Идентификатор кодека : XVID
Идентификатор кодека/Подсказка : XviD
Продолжительность : 21 м.
Битрейт : 1384 Кбит/сек
Ширина : 672 пикселя
Высота : 372 пикселя
Соотношение сторон : 16:9
Частота кадров : 25,000 кадров/сек
Цветовое пространство : YUV
Субдискретизация насыщенности : 4:2:0
Битовая глубина : 8 бит
Тип развёртки : Прогрессивная
Метод сжатия : С потерями
Бит/(Пиксели*Кадры) : 0.222
Размер потока : 217 Мбайт (93%)
Библиотека кодирования : XviD 64
Аудио
Идентификатор : 1
Формат : MPEG Audio
Версия формата : Version 1
Профиль формата : Layer 3
Идентификатор кодека : 55
Идентификатор кодека/Подсказка : MP3
Продолжительность : 21 м.
Вид битрейта : Переменный
Битрейт : 87,2 Кбит/сек
Номинальный битрейт : 96,0 Кбит/сек
Каналы : 1 канал
Частота : 48,0 КГц
Метод сжатия : С потерями
Размер потока : 13,7 Мбайт (6%)
Выравнивание : Соединение по промежуткам
Продолжительность промежутка : 24 мс. (0,60 видеокадр)
Библиотека кодирования : LAME3.98r
Настройки программы : -m m -V 4 -q 3 -lowpass 20.5 --abr 96
Скриншоты:          Время раздачи: 24/7. До первых 5 скачавших.
Other forum [Profile] [PM]
Display posts from previous:    
Reply to topic

The time now is: Today 11:19

All times are GMT + 3 Hours



You cannot post new topics in this forum
You cannot reply to topics in this forum
You cannot edit your posts in this forum
You cannot delete your posts in this forum
You cannot vote in polls in this forum
You cannot attach files in this forum
You cannot download files in this forum