Today is a free download without charge Download

Шерлок Холмс и доктор Ватсон: Собака Баскервилей (Игорь Масленников) [1981, СССР, детектив, BDRip 720p]

Reply to topic
 
Author
Message

Omen ®

Longevity: 8 years 10 months

Posts: 181086

Торрент-статистика

Post 15-Dec-2013 11:01

[Quote]

Шерлок Холмс и доктор Ватсон: Собака Баскервилей

-
-Страна: СССР
Студия: Ленфильм
Жанр: детектив
Год выпуска: 1981
Продолжительность: 01:16:56 + 01:15:30--Перевод: Не требуется
Cубтитры: английские--Режиссер: Игорь Масленников
В ролях: Василий Ливанов, Виталий Соломин, Рина Зеленая, Ирина Купченко, Никита Михалков, Алла Демидова, Светлана Крючкова, Александр Адабашьян, Борислав Брондуков, Евгений Стеблов--Описание: Труп Чарльза Баскервиля обнаруживают неподалеку от его родового поместья. Выражение нечеловеческого ужаса на лице покойника и следы крупной собаки поблизости заставляют вспомнить старинную легенду о проклятии, тяготеющем над родом Баскервилей. Шерлоку Холмсу предстоит докопаться до истины…--imdb | kinopoisk | Сэмпл--Тип релиза: BDRip 720p [Priklyucheniya Sherloka Kholmsa i doktora Vatsona: Sobaka Baskerviley 1981 720p BluRay DTS x264-SbR]
Контейнер: MKV
Видео: MPEG-4 AVC / 7785 kbps + 7755 kbps / 998x720 / 23,976 fps / 1,386 / High Profile 4.1
Аудио 1: Russian DTS / 5.1 / 48 kHz / 1509 kbps / 24 bits
Аудио 2: Russian FLAC / 1.0 / 48 kHz / 655/636 kbps / 24 bits
Формат субтитров: softsub [SRT]

MediaInfo

Priklyucheniya.Sherloka.Kholmsa.i.doktora.Vatsona.Sobaka.Baskerviley.1981.Part1.720p.BluRay.DTS.x264-SbR

Код:
Общее
Уникальный идентификатор                 : 174975033383131447817368084577561410326 (0x83A2F7339C712329A90E6EB2C75CFB16)
Полное имя                               : G:\HD\Priklyucheniya.Sherloka.Kholmsa.i.doktora.Vatsona.Sobaka.Baskerviley.1981.720p.BluRay.DTS.x264-SbR\Priklyucheniya.Sherloka.Kholmsa.i.doktora.Vatsona.Sobaka.Baskerviley.1981.Part1.720p.BluRay.DTS.x264-SbR.mkv
Формат                                   : Matroska
Версия формата                           : Version 4 / Version 2
Размер файла                             : 5,35 Гбайт
Продолжительность                        : 1 ч. 16 м.
Режим общего битрейта                    : Переменный
Общий поток                              : 9952 Кбит/сек
Дата кодирования                         : UTC 2013-12-14 18:22:32
Программа кодирования                    : mkvmerge v6.6.0 ('The Edge Of The In Between') built on Dec  1 2013 17:55:00
Библиотека кодирования                   : libebml v1.3.0 + libmatroska v1.4.1
Видео
Идентификатор                            : 1
Формат                                   : AVC
Формат/Информация                        : Advanced Video Codec
Профиль формата                          : [email protected]
Параметр CABAC формата                   : Да
Параметр ReFrames формата                : 11 кадров
Идентификатор кодека                     : V_MPEG4/ISO/AVC
Продолжительность                        : 1 ч. 16 м.
Ширина                                   : 998 пикселей
Высота                                   : 720 пикселей
Соотношение сторон                       : 1,386
Режим частоты кадров                     : Постоянный
Частота кадров                           : 23,976 кадра/сек
Цветовое пространство                    : YUV
Субдискретизация насыщенности            : 4:2:0
Битовая глубина                          : 8 бит
Тип развёртки                            : Прогрессивная
Заголовок                                : Шерлок Холмс и доктор Ватсон: Собака Баскервилей (1981) Первая серия
Библиотека кодирования                   : x264 core 140 r2377+40 929f149 tMod [[email protected] X86_64]
Настройки программы                      : cabac=1 / ref=11 / deblock=1:-1:-1 / analyse=0x3:0x133 / me=umh / subme=11 / psy=1 / fade_compensate=0.00 / psy_rd=1.00:0.00 / mixed_ref=1 / me_range=48 / chroma_me=1 / trellis=2 / 8x8dct=1 / cqm=0 / deadzone=21,11 / fast_pskip=0 / chroma_qp_offset=-2 / threads=12 / lookahead_threads=3 / sliced_threads=0 / nr=0 / decimate=0 / interlaced=0 / bluray_compat=0 / constrained_intra=0 / fgo=0 / bframes=16 / b_pyramid=2 / b_adapt=2 / b_bias=0 / direct=3 / weightb=1 / open_gop=0 / weightp=2 / keyint=250 / keyint_min=23 / scenecut=40 / intra_refresh=0 / rc=crf / mbtree=0 / crf=16.0000 / qcomp=0.70 / qpmin=0:0:0 / qpmax=69:69:69 / qpstep=4 / ip_ratio=1.30 / pb_ratio=1.20 / aq=1:0.75 / aq-sensitivity=10.00 / aq-factor=1.00:1.00:1.00 / aq2=1:0.70 / aq2-sensitivity=15.00 / aq2-factor=1.00:1.00:1.00 / aq3=0 / zones=925,2651,b=1.7
Язык                                     : English
Default                                  : Да
Forced                                   : Нет
Аудио #1
Идентификатор                            : 2
Формат                                   : DTS
Формат/Информация                        : Digital Theater Systems
Режим                                    : 16
Параметр Endianness формата              : Big
Идентификатор кодека                     : A_DTS
Продолжительность                        : 1 ч. 16 м.
Вид битрейта                             : Постоянный
Битрейт                                  : 1509 Кбит/сек
Каналы                                   : 6 каналов
Расположение каналов                     : Front: L C R, Side: L R, LFE
Частота                                  : 48,0 КГц
Битовая глубина                          : 24 бит
Метод сжатия                             : С потерями
Размер потока                            : 830 Мбайт (15%)
Язык                                     : Russian
Default                                  : Да
Forced                                   : Нет
Аудио #2
Идентификатор                            : 3
Формат                                   : FLAC
Формат/Информация                        : Free Lossless Audio Codec
Идентификатор кодека                     : A_FLAC
Продолжительность                        : 1 ч. 16 м.
Вид битрейта                             : Переменный
Каналы                                   : 1 канал
Частота                                  : 48,0 КГц
Битовая глубина                          : 24 бит
Библиотека кодирования                   : libFLAC 1.2.1 (UTC 2007-09-17)
Язык                                     : Russian
Default                                  : Нет
Forced                                   : Нет
Текст
Идентификатор                            : 4
Формат                                   : UTF-8
Идентификатор кодека                     : S_TEXT/UTF8
Идентификатор кодека/Информация          : UTF-8 Plain Text
Язык                                     : English
Default                                  : Нет
Forced                                   : Нет
Меню
00:00:00.000                             : ru:Первая серия
00:01:50.610                             : ru:Бэйкер-стрит, 211б
00:05:37.087                             : ru:Рассказ доктора Мортимера
00:15:12.787                             : ru:"Мы займемся этим делом!"
00:19:43.808                             : ru:Сэр Генри Баскервиль
00:25:50.257                             : ru:В погоне за кэбом
00:38:38.065                             : ru:Баскервиль-Холл
00:46:45.761                             : ru:Прогулка по болотам. Стэплтон
00:53:42.970                             : ru:Предупреждение и приглашение
01:03:24.676                             : ru:Визит Стэплтонов
01:09:09.354                             : ru:Бэрримор подает сигнал
01:15:28.607                             : ru:Ночные поиски
01:15:58.179                             : ru:Конец первой серии

Priklyucheniya.Sherloka.Kholmsa.i.doktora.Vatsona.Sobaka.Baskerviley.1981.Part2.720p.BluRay.DTS.x264-SbR

Код:
Общее
Уникальный идентификатор                 : 188401938287691372413793465964593596797 (0x8DBCE4B9540E44728C6548DDF8CAC97D)
Полное имя                               : G:\HD\Priklyucheniya.Sherloka.Kholmsa.i.doktora.Vatsona.Sobaka.Baskerviley.1981.720p.BluRay.DTS.x264-SbR\Priklyucheniya.Sherloka.Kholmsa.i.doktora.Vatsona.Sobaka.Baskerviley.1981.Part2.720p.BluRay.DTS.x264-SbR.mkv
Формат                                   : Matroska
Версия формата                           : Version 4 / Version 2
Размер файла                             : 5,22 Гбайт
Продолжительность                        : 1 ч. 15 м.
Режим общего битрейта                    : Переменный
Общий поток                              : 9902 Кбит/сек
Дата кодирования                         : UTC 2013-12-14 18:32:19
Программа кодирования                    : mkvmerge v6.6.0 ('The Edge Of The In Between') built on Dec  1 2013 17:55:00
Библиотека кодирования                   : libebml v1.3.0 + libmatroska v1.4.1
Видео
Идентификатор                            : 1
Формат                                   : AVC
Формат/Информация                        : Advanced Video Codec
Профиль формата                          : [email protected]
Параметр CABAC формата                   : Да
Параметр ReFrames формата                : 11 кадров
Идентификатор кодека                     : V_MPEG4/ISO/AVC
Продолжительность                        : 1 ч. 15 м.
Ширина                                   : 998 пикселей
Высота                                   : 720 пикселей
Соотношение сторон                       : 1,386
Режим частоты кадров                     : Постоянный
Частота кадров                           : 23,976 кадра/сек
Цветовое пространство                    : YUV
Субдискретизация насыщенности            : 4:2:0
Битовая глубина                          : 8 бит
Тип развёртки                            : Прогрессивная
Заголовок                                : Шерлок Холмс и доктор Ватсон: Собака Баскервилей (1981) Вторая серия
Библиотека кодирования                   : x264 core 140 r2377+40 929f149 tMod [[email protected] X86_64]
Настройки программы                      : cabac=1 / ref=11 / deblock=1:-1:-1 / analyse=0x3:0x133 / me=umh / subme=11 / psy=1 / fade_compensate=0.00 / psy_rd=1.00:0.00 / mixed_ref=1 / me_range=48 / chroma_me=1 / trellis=2 / 8x8dct=1 / cqm=0 / deadzone=21,11 / fast_pskip=0 / chroma_qp_offset=-2 / threads=12 / lookahead_threads=3 / sliced_threads=0 / nr=0 / decimate=0 / interlaced=0 / bluray_compat=0 / constrained_intra=0 / fgo=0 / bframes=16 / b_pyramid=2 / b_adapt=2 / b_bias=0 / direct=3 / weightb=1 / open_gop=0 / weightp=2 / keyint=250 / keyint_min=23 / scenecut=40 / intra_refresh=0 / rc=crf / mbtree=0 / crf=16.0000 / qcomp=0.70 / qpmin=0:0:0 / qpmax=69:69:69 / qpstep=4 / ip_ratio=1.30 / pb_ratio=1.20 / aq=1:0.75 / aq-sensitivity=10.00 / aq-factor=1.00:1.00:1.00 / aq2=1:0.70 / aq2-sensitivity=15.00 / aq2-factor=1.00:1.00:1.00 / aq3=0 / zones=850,2425,b=1.7
Язык                                     : Russian
Default                                  : Да
Forced                                   : Нет
Аудио #1
Идентификатор                            : 2
Формат                                   : DTS
Формат/Информация                        : Digital Theater Systems
Режим                                    : 16
Параметр Endianness формата              : Big
Идентификатор кодека                     : A_DTS
Продолжительность                        : 1 ч. 15 м.
Вид битрейта                             : Постоянный
Битрейт                                  : 1509 Кбит/сек
Каналы                                   : 6 каналов
Расположение каналов                     : Front: L C R, Side: L R, LFE
Частота                                  : 48,0 КГц
Битовая глубина                          : 24 бит
Метод сжатия                             : С потерями
Размер потока                            : 815 Мбайт (15%)
Язык                                     : Russian
Default                                  : Да
Forced                                   : Нет
Аудио #2
Идентификатор                            : 3
Формат                                   : FLAC
Формат/Информация                        : Free Lossless Audio Codec
Идентификатор кодека                     : A_FLAC
Продолжительность                        : 1 ч. 15 м.
Вид битрейта                             : Переменный
Каналы                                   : 1 канал
Частота                                  : 48,0 КГц
Битовая глубина                          : 24 бит
Библиотека кодирования                   : libFLAC 1.2.1 (UTC 2007-09-17)
Язык                                     : Russian
Default                                  : Нет
Forced                                   : Нет
Текст
Идентификатор                            : 4
Формат                                   : UTF-8
Идентификатор кодека                     : S_TEXT/UTF8
Идентификатор кодека/Информация          : UTF-8 Plain Text
Язык                                     : English
Default                                  : Нет
Forced                                   : Нет
Меню
00:00:00.000                             : ru:Вторая серия
00:01:41.184                             : ru:Утро в Баскервиль-Холле
00:12:58.903                             : ru:Ватсон продолжает расследование
00:23:05.606                             : ru:Свидание
00:33:02.063                             : ru:Встреча с Холмсом
00:39:41.170                             : ru:Гибель Сэлдона
00:49:14.869                             : ru:План Холмса
00:57:41.541                             : ru:Засада. Чудовище
01:03:58.960                             : ru:Конец Стэплтона
01:08:36.446                             : ru:Финал
01:14:10.863                             : ru:Титры

Скриншоты


Priklyucheniya.Sherloka.Kholmsa.i.doktora.Vatsona.Sobaka.Baskerviley.1981.720p.BluRay.DTS.x264-SbR

Код:
Release info
RELEASE NAME..: Priklyucheniya.Sherloka.Kholmsa.i.doktora.Vatsona.Sobaka.Baskerviley.1981.720p.BluRay.DTS.x264-SbR
RELEASE SIZE..: 5.35 GiB + 5.22 GiB
RUNTIME.......: 01:16:56 + 01:15:30
VIDEO CODEC...: x264, crf, L4.1
FRAMERATE.....: 23.976 fps
BITRATE.......: 7785 kbps + 7755 kbps
RESOLUTION....: 998x720p
AUDIO1........: Russian DTS 5.1 @ 1509 kbps
AUDIO2........: Russian FLAC 1.0 @ 655/636 kbps
SUBTITLES.....: Eng
CHAPTERS......: Included, named
SOURCE........: SOBAKA_BASKERVILEY_HDCLUB
RELEASE DATE..: 15.12.2013
ENCODER.......: Lesnick
x264log
x264 [info]: frame I:574   Avg QP:14.55  size:149032
x264 [info]: frame P:21214 Avg QP:16.12  size: 83228
x264 [info]: frame B:88884 Avg QP:17.28  size: 29711
x264 [info]: encoded 110672 frames, 8.037 fps, 7785.19 kb/s, 4283.9 MB
x264 [info]: frame I:553   Avg QP:14.28  size:146546
x264 [info]: frame P:20586 Avg QP:15.81  size: 81401
x264 [info]: frame B:87463 Avg QP:17.03  size: 30114
x264 [info]: encoded 108602 frames, 8.747 fps, 7754.59 kb/s, 4187.3 MB
Source | Encode


Other forum [Profile] [PM]
Display posts from previous:    
Reply to topic

The time now is: Today 13:34

All times are GMT + 3 Hours



You cannot post new topics in this forum
You cannot reply to topics in this forum
You cannot edit your posts in this forum
You cannot delete your posts in this forum
You cannot vote in polls in this forum
You cannot attach files in this forum
You cannot download files in this forum