Today is a free download without charge Download

Три богатыря на дальних берегах (Константин Феоктистов) [2012, Мультфильм, Приключения, Семейный, DVDRip]

Reply to topic
 
Author
Message

Omen ®

Longevity: 7 years 11 months

Posts: 181087

Торрент-статистика

Post 13-Dec-2013 23:00

[Quote]

Три богатыря на дальних берегах
Страна: Россия
Жанр: Мультфильм, Приключения, Семейный
Продолжительность: 01:08:22
Год выпуска: 2012
Перевод: Не требуется
Русские субтитры: нет
Режиссёр: Константин Феоктистов
Роли озвучивали: Сергей Маковецкий, Елизавета Боярская, Фёдор Бондарчук, Дмитрий Быковский, Елена Шульман, Олег Куликович, Лия Медведева, Мария Цветкова, Дмитрий Высоцкий, Анатолий Петров, Наталья Данилова
Описание: На этот раз Алеша Попович, Добрыня Никитич и Илья Муромец, благодаря козням коварной Бабы Яги, оказываются за семью морями на острове, на котором живут туземцы и страшный Гомума. В их отсутствие купец Колыван решают вместе с Бабой-Ягой захватить царство и забрать власть у князя Киевского. На помощь незадачливому правителю приходит конь Юлий, а также жены богатырей и их многочисленные родственники. Словом, богатырей и зрителей ждут приключения на дальних берегах, обыкновенные и невероятные.
Качество: DVDRip
Формат: AVI
Видео: DivX 5 720x404 29.97fps 1793Kbps
Аудио: MPEG Audio Layer 3 48000Hz stereo 128Kbps
Субтитры: отсутствуют

Подробные технические данные

GeneralComplete name : Три богатыря на дальних берегах\Три богатыря на дальних берегах.aviFormat : AVIFormat/Info : Audio Video InterleaveFile size : 947 MiBDuration : 1h 8mnOverall bit rate : 1 935 KbpsWriting application : MEncoder version Beta 4.4.5 building on 20110111Writing library : [= DigiArty videodll! =][= DigiArty videodll! =][= DigiArty videodll! =][= DigiArty videodll! =][= DigiArty videodll! =][= DigiArty videodll! =][= DigiArty videodll! =][= DigiArty videodll! =][= DigiArty videodll! =][= DigiArty videodll! =][= DigiArty videodll! =][= DigiArty videodll! =][= DigiArty videodll! =][= DigiArty videodll! =][= DigiArty videodll! =][= DigiArty videodll! =][= DigiArty videodll! =][= DigiArty videodll! =][= DigiArty videodll! =][= DigiArty videodll! =][= DigiArty videodll! =][= DigiArty videodll! =][= DigiArty videodll! =][= DigiArty videodll! =][= DigiArty videodll! =][= DigiArty videodll! =][= DigiArty videodll! =][= DigiArty videodll! =][= DigiArty videodll! =][= DigiArty videodll! =][= DigiArty videodll! =][= DigiArty videodll! =][= DigiArty videodll! =][= DigiArty videodll! =][= DigiArty videodll! =][= DigiArty videodll! =][= DigiArty videodll! =][= DigiArty videodll! =][= DigiArty videodll! =][= DigiArty videodll! =][= DigiArty videodll! =][= DigiArty videodll! =][= DigiArty videodll! =][= DigiArty videodll! =][= DigiArty videodll! =][= DigiArty videodll! =][= DigiArty videodll! =][= DigiArty videodll! =][= DigiArty videodll! =][= DigiArty videodll! =][= DigiArty videodll! =][= DigiArty videodll! =][= DigiArty videodll! =][= DigiArty videodll! =][= DigiArty videodll! =][= DigiArty videodll! =][= DigiArty videodll! =][= DigiArty videodll! =][= DigiArty videodll! =][= DigiArty videodll! =][= DigiArty videodll! =][= DigiArty videodll! =][= DigiArty videodll! =][= DigiArty videodll! =][= DigiArty videodll! =][= DigiArty videodll! =][= DigiArty videodll! =][= DigiArty videodll! =][= DigiArty videodll! =][= DigiArty videodll! =][= DigiArty videodll! =][= DigiArty videodll! =][= DigiArty videodll! =][= DigiArty videodll! =][= DigiArty videodll! =][= DigiArty videodll! =][= DigiArty videodll! =][= DigiArty videodll! =][= DigiArty videodll! =][= DigiArty videodll! =][= DigiArty videodll! =][= DigiArty videodll! =][= DigiArty videodll! =][= DigiArty videodll! =][= DigiArty videodll! =][= DigiArty videodll! =][= DigiArty videodll! =][= DigiArty videodll! =][= DigiArty videodll! =][= DigiArty videodll! =][= DigiArty videodll! =][= DigiArty videodll! =][= DigiArty videodll! =][= DigiArty videodll! =][= DigiArty videodll! =][= DigiArty videodll! =][= DigiArty videodll! =][= DigiArty videodll! =][= DigiArty videodll! =][= DigiArty videodll! =][= DigiArty videodll! =][= DigiArty videodll! =][= DigiArty videodll! =][= DigiArty videodll! =][= DigiArty videodll! =][= DigiArty videodll! =][= DigiArty videodll! =][= DigiArty videodll! =][= DigiArty videodll! =][= DigiArty videodll! =][= DigiArty videodll! =][= DigiArty videodll! =][= DigiArty videodll! =][= DigiArty videodll! =][= DigiArty videodll! =][= DigiArty videodll! =][= DigiArty videodll! =][= DigiArty videodll! =][= DigiArty videodll! =][= DigiArty videodll! =][= DigiArty videodll! =][= DigiArty videodll! =][= DigiArty videodll! =][= DigiArty videodll! =][= DigiArty videodll! =][= DigiArty videodll! =][= DigiArty videodll! =][= DigiArty videodll! =][= DigiArty videodll! =][= DigiArty videodll! =][= DigiArty videodll! =][= DigiArty videodll! =][= DigiArty videodll! =][= DigiArty videodll! =][= DigiArty videodll! =][= DigiArty videodll! =][= DigiArty videodll! =][= DigiArty videodll! =][= DigiArty videodll! =][= DigiArty videodll! =][= DigiArty videodll! =][= DigiArty videodll! =][= DigiArty videodll! =][= DigiArty videodll! =][= DigiArty videodll! =][= DigiArty videodll! =][= DigiArty videodll! =][= DigiArty videodll! =][= DigiArty videodll! =][= DigiArty videodll! =][= DigiArty vide
VideoID : 0Format : MPEG-4 VisualFormat profile : [email protected] settings, BVOP : NoFormat settings, QPel : NoFormat settings, GMC : No warppointsFormat settings, Matrix : Default (H.263)Codec ID : DX50Codec ID/Hint : DivX 5Duration : 1h 8mnBit rate : 1 794 KbpsWidth : 720 pixelsHeight : 404 pixelsDisplay aspect ratio : 16:9Original display aspect ratio : 16:9Frame rate : 29.970 fpsColor space : YUVChroma subsampling : 4:2:0Bit depth : 8 bitsScan type : ProgressiveCompression mode : LossyBits/(Pixel*Frame) : 0.206Stream size : 877 MiB (93%)Writing library : DigiArty AV Encoder Core
AudioID : 1Format : MPEG AudioFormat version : Version 1Format profile : Layer 3Codec ID : 55Codec ID/Hint : MP3Duration : 1h 8mnBit rate mode : ConstantBit rate : 128 KbpsChannel(s) : 2 channelsSampling rate : 48.0 KHzCompression mode : LossyStream size : 62.6 MiB (7%)Alignment : Aligned on interleavesInterleave, duration : 24 ms (0.72 video frame)Interleave, preload duration : 504 msWriting library : LAME3.98.4

Скриншоты






Other forum [Profile] [PM]
Display posts from previous:    
Reply to topic

The time now is: Today 22:43

All times are GMT + 3 Hours



You cannot post new topics in this forum
You cannot reply to topics in this forum
You cannot edit your posts in this forum
You cannot delete your posts in this forum
You cannot vote in polls in this forum
You cannot attach files in this forum
You cannot download files in this forum