Today is a free download without charge Download

Рыжик (Илья Фрэз)[1960.,Приключения, Драма, Детский] DVDRip

Reply to topic
 
Author
Message

sashau ®

Gender:

Longevity: 9 years 6 months

Posts: 3497

Торрент-статистика

Post 12-Dec-2013 13:17

[Quote]

Рыжик - Год выпуска: 1960
Жанр: Приключения, Драма, Детский
Описание фильма:
Увлекательная история дружбы мальчика Саньки, прозванного рыжиком за медно-красный цвет волос, и артиста-клоуна Полфунта. Вместе они колесят по бескрайним просторам России в поисках счастья.
Режиссер: Илья Фрэз
Актеры: Александр Крынкин, Сергей Золотарев, Владимир Белокуров, Борис Буткеев, Виктория Духина, Георгий Георгиу, Сергей Гордеев, Петр Кирюткин, Софья Павлова, Владимир Ралетнев
Продолжительность: 01:24:13
Качество видео: DVDRip

Видеокодек: Xvid
Битрейт видео: ~1800 Кбит/сек
Размер кадра: 720x552
Аудиокодек: MP3, 1 ch
Битрейт аудио: 64,0 Кбит/сек

MediaInfo:

Общее
Полное имя : E:\3Этап\Подг\Рыжик (1960)\Рыжик (1960) DVDRip.avi
Формат : AVI
Формат/Информация : Audio Video Interleave
Размер файла : 1,10 Гбайт
Продолжительность : 1 ч. 24 м.
Общий поток : 1873 Кбит/сек
Программа кодирования : VirtualDubModRus 1.5.10.2 (build 2540/release)
Библиотека кодирования : VirtualDubMod build 2540/release
Видео
Идентификатор : 0
Формат : MPEG-4 Visual
Профиль формата : Advanced [email protected]
Параметр BVOP формата : 2
Параметр QPel формата : Нет
Параметр GMC формата : Без точки перехода
Параметр матрицы формата : Default (H.263)
Идентификатор кодека : XVID
Идентификатор кодека/Подсказка : XviD
Продолжительность : 1 ч. 24 м.
Битрейт : 1800 Кбит/сек
Ширина : 720 пикселей
Высота : 552 пикселя
Соотношение сторон : 4:3
Частота кадров : 25,000 кадров/сек
Цветовое пространство : YUV
Субдискретизация насыщенности : 4:2:0
Битовая глубина : 8 бит
Тип развёртки : Прогрессивная
Метод сжатия : С потерями
Бит/(Пиксели*Кадры) : 0.181
Размер потока : 1,06 Гбайт (96%)
Библиотека кодирования : XviD 1.2.1 (UTC 2008-12-04)
Аудио
Идентификатор : 1
Формат : MPEG Audio
Версия формата : Version 1
Профиль формата : Layer 3
Идентификатор кодека : 55
Идентификатор кодека/Подсказка : MP3
Продолжительность : 1 ч. 24 м.
Вид битрейта : Постоянный
Битрейт : 64,0 Кбит/сек
Каналы : 1 канал
Частота : 48,0 КГц
Метод сжатия : С потерями
Размер потока : 38,6 Мбайт (3%)
Выравнивание : Соединение по промежуткам
Продолжительность промежутка : 40 мс. (1,00 видеокадр)
Время предзагрузки промежутка : 504 мс.
Скриншоты:
         
         
Other forum [Profile] [PM]
Display posts from previous:    
Reply to topic

The time now is: Today 04:36

All times are GMT + 3 Hours



You cannot post new topics in this forum
You cannot reply to topics in this forum
You cannot edit your posts in this forum
You cannot delete your posts in this forum
You cannot vote in polls in this forum
You cannot attach files in this forum
You cannot download files in this forum