Today is a free download without charge Download

Про Ксюшу и Компьюшу (Леонид Кощеников)[1989.,Детский, Кукольный] DVDRip

Reply to topic
 
Author
Message

sashau ®

Gender:

Longevity: 8 years 10 months

Posts: 3497

Торрент-статистика

Post 12-Dec-2013 13:02

[Quote]

Про Ксюшу и Компьюшу - Год выпуска: 1989
Жанр: Детский, Кукольный
Режиссер: Леонид Кощеников
Персонажи: Мультипликационные
Описание фильма:
Жила девочка Ксюша. Мама и папа у нее работали программистами, а бабушка очень любила спорт. Как-то раз бабушка отправилась на Всемирные соревнования спортивных бабушек. Поэтому родители решили сделать Ксюше электронную бабушку, которая бы присматривала за девочкой. Назвали её Компьюшей. Компьюша поначалу вела себя как обычный бездушный робот, но, подружившись с девочкой, стала понимать красоту окружающего мира.

Продолжительность: 00:20:07
Качество видео: DVDRip
Видеокодек: DivX 5
Битрейт видео: ~1965 kbps
Размер кадра: 512 x 384
Аудиокодек: MP3, 1 ch
Битрейт аудио: 96 kbps

MediaInfo

pro.ksjushu.i.kompjushu.avi
Format : AVI
Format/Info : Audio Video Interleave
File size : 298 MiB
Duration : 20mn 7s
Overall bit rate : 2 072 Kbps
Movie name : Pro Ksjushu i Komp'jushu
Director : Perm'telefil'm
Recorded date : 1989
Writing application : VirtualDubMod 1.5.10.2 (build 2542/release)
Writing library : VirtualDubMod build 2542/release
Comment : DVDrip / DivX Pro 5.2.1 / Lame MP3
Video
ID : 0
Format : MPEG-4 Visual
Format settings, BVOP : 1
Format settings, QPel : No
Format settings, GMC : No warppoints
Format settings, Matrix : Default (H.263)
Muxing mode : Packed bitstream
Codec ID : DX50
Codec ID/Hint : DivX 5
Duration : 20mn 7s
Bit rate : 1 966 Kbps
Width : 512 pixels
Height : 384 pixels
Display aspect ratio : 4:3
Frame rate : 25.000 fps
Color space : YUV
Chroma subsampling : 4:2:0
Bit depth : 8 bits
Scan type : Progressive
Compression mode : Lossy
Bits/(Pixel*Frame) : 0.400
Stream size : 283 MiB (95%)
Writing library : DivX 5.2.1 (DrDivX 106) (UTC 2004-09-08)
Audio
ID : 1
Format : MPEG Audio
Format version : Version 1
Format profile : Layer 3
Codec ID : 55
Codec ID/Hint : MP3
Duration : 20mn 7s
Bit rate mode : Constant
Bit rate : 96.0 Kbps
Channel count : 1 channel
Sampling rate : 44.1 KHz
Compression mode : Lossy
Stream size : 13.8 MiB (5%)
Alignment : Split accross interleaves
Interleave, duration : 40 ms (1.00 video frame)
Interleave, preload duration : 500 ms
Скриншоты:
         
Other forum [Profile] [PM]
Display posts from previous:    
Reply to topic

The time now is: Today 11:28

All times are GMT + 3 Hours



You cannot post new topics in this forum
You cannot reply to topics in this forum
You cannot edit your posts in this forum
You cannot delete your posts in this forum
You cannot vote in polls in this forum
You cannot attach files in this forum
You cannot download files in this forum