Today is a free download without charge Download

Капроновые сети (Геннадий Полока, Леван Шенгелия)[1963.,Детский, Приключения] SATRip

Reply to topic
 
Author
Message

sashau ®

Gender:

Longevity: 9 years 6 months

Posts: 3497

Торрент-статистика

Post 11-Dec-2013 12:52

[Quote]

Капроновые сети - Год выпуска: 1963
Жанр: Детский, Приключения
Описание фильма:
Два героя фильма, Боря и Сева, живут на берегу Днепра. Летом, во время каникул, помогают взрослым, разнося письма. Неожиданно они узнают, что в поселке появился браконьер. Ребята начинают собственное расследование.
Режиссер: Геннадий Полока, Леван Шенгелия
Актеры: Леня Харонский, Коля Ашихмин, Павел Луспекаев, Николай Крючков, Леонид Харитонов, Алевтина Румянцева, Анатолий Соловьев, Марина Кузнецова, Владимир Гуляев, Георгий Гумилевский, Андрей Тутышкин, Виктор Колпаков, Эммануил Геллер, Михаил Зимин
Продолжительность: 01:08:39
Качество видео: SATRip

Видеокодек: XviD
Битрейт видео: ~1850 kbps
Размер кадра: 696 x 296
Аудиокодек: MP3, 2 ch
Битрейт аудио: 128 kbps

MediaInfo

Kapronovye.seti.1963.TVRip.avi
Format : AVI
Format/Info : Audio Video Interleave
File size : 976 MiB
Duration : 1h 8mn
Overall bit rate : 1 987 Kbps
Director : SATrip by Animat (fenixclub.com)
Writing application : VirtualDubMod 1.5.10.2 (build 2540/release)
Writing library : VirtualDubMod build 2540/release
Video
ID : 0
Format : MPEG-4 Visual
Format profile : Advanced [email protected]
Format settings, BVOP : 2
Format settings, QPel : No
Format settings, GMC : No warppoints
Format settings, Matrix : Default (MPEG)
Muxing mode : Packed bitstream
Codec ID : XVID
Codec ID/Hint : XviD
Duration : 1h 8mn
Bit rate : 1 849 Kbps
Width : 696 pixels
Height : 296 pixels
Display aspect ratio : 2.35:1
Frame rate : 25.000 fps
Color space : YUV
Chroma subsampling : 4:2:0
Bit depth : 8 bits
Scan type : Progressive
Compression mode : Lossy
Bits/(Pixel*Frame) : 0.359
Stream size : 908 MiB (93%)
Writing library : XviD 1.1.2 (UTC 2006-11-01)
Audio
ID : 1
Format : MPEG Audio
Format version : Version 1
Format profile : Layer 3
Mode : Joint stereo
Mode extension : MS Stereo
Codec ID : 55
Codec ID/Hint : MP3
Duration : 1h 8mn
Bit rate mode : Constant
Bit rate : 128 Kbps
Channel count : 2 channels
Sampling rate : 48.0 KHz
Compression mode : Lossy
Stream size : 62.9 MiB (6%)
Alignment : Aligned on interleaves
Interleave, duration : 40 ms (1.00 video frame)
Interleave, preload duration : 504 ms
Скриншоты:
         
Other forum [Profile] [PM]
Display posts from previous:    
Reply to topic

The time now is: Today 11:10

All times are GMT + 3 Hours



You cannot post new topics in this forum
You cannot reply to topics in this forum
You cannot edit your posts in this forum
You cannot delete your posts in this forum
You cannot vote in polls in this forum
You cannot attach files in this forum
You cannot download files in this forum