Today is a free download without charge Download

Садись рядом, Мишка (Яков Базелян)[1977.,Детский, Военный] DVDRip

Reply to topic
 
Author
Message

sashau ®

Gender:

Longevity: 9 years 6 months

Posts: 3497

Торрент-статистика

Post 11-Dec-2013 12:50

[Quote]

Садись рядом, Мишка - Год выпуска: 1977
Жанр: Детский, Военный
Описание фильма:
О блокадном Ленинграде, семилетнем Мишке Афанасьеве и его друзьях - брате Гене и сестренке Леночке, которые чаще всего оставались без присмотра родителей. Выступая с концертами в госпиталях, ребята общались с героями войны и конечно верили в победу.
Режиссер: Яков Базелян
Актеры: Женя Черницын, Гоша Носков, Оксана Бочкова, Стасик Селиванов, Борис Морозов, Наталья Рычагова, Андрей Мягков, Анастасия Вознесенская, Валерий Рыжаков, Александр Михайлушкин, Раднэр Муратов
Продолжительность: 01:12:38
Качество видео: DVDRip

Видеокодек: DivX 5
Битрейт видео: ~1650 kbps
Размер кадра: 704 x 448
Аудиокодек: AC3 2.0
Битрейт аудио: 192 kbps

MediaInfo

Sadis.riadom.Mischka.avi
Format : AVI
Format/Info : Audio Video Interleave
File size : 962 MiB
Duration : 1h 12mn
Overall bit rate : 1 852 Kbps
Writing library : VirtualDub build 27021/release
Video
ID : 0
Format : MPEG-4 Visual
Format settings, BVOP : 1
Format settings, QPel : No
Format settings, GMC : No warppoints
Format settings, Matrix : Default (MPEG)
Codec ID : DX50
Codec ID/Hint : DivX 5
Duration : 1h 12mn
Bit rate : 1 650 Kbps
Width : 704 pixels
Height : 448 pixels
Display aspect ratio : 16:10
Frame rate : 25.000 fps
Color space : YUV
Chroma subsampling : 4:2:0
Bit depth : 8 bits
Scan type : Progressive
Compression mode : Lossy
Bits/(Pixel*Frame) : 0.209
Stream size : 857 MiB (89%)
Writing library : DivX 1307m
Audio
ID : 1
Format : AC-3
Format/Info : Audio Coding 3
Mode extension : CM (complete main)
Format settings, Endianness : Big
Codec ID : 2000
Duration : 1h 12mn
Bit rate mode : Constant
Bit rate : 192 Kbps
Channel count : 2 channels
Channel positions : Front: L R
Sampling rate : 48.0 KHz
Bit depth : 16 bits
Compression mode : Lossy
Stream size : 99.8 MiB (10%)
Alignment : Aligned on interleaves
Interleave, duration : 40 ms (1.00 video frame)
Interleave, preload duration : 512 ms
Скриншоты:
         
Other forum [Profile] [PM]
Display posts from previous:    
Reply to topic

The time now is: Today 00:21

All times are GMT + 3 Hours



You cannot post new topics in this forum
You cannot reply to topics in this forum
You cannot edit your posts in this forum
You cannot delete your posts in this forum
You cannot vote in polls in this forum
You cannot attach files in this forum
You cannot download files in this forum