Today is a free download without charge Download

Discovery: Из чего это сделано? (Сезон 9, Серия 9) / How do they do it? (2012) HDTVRip

Reply to topic
 
Author
Message

UndegraundMen ®

Longevity: 7 years 7 months

Posts: 25145

Торрент-статистика

Post 10-Dec-2013 23:00

[Quote]

Discovery: Из чего это сделано? (Сезон 9, Серия 9) / How do they do it? (2012) HDTVRip - Режиссер / Телекомпания: Discovery
Русское название: Из чего это сделано?
Оригинальное название: How do they do it?
Год выпуска: 2012
Жанр: Документальный, научно-популярный
Выпущено: Канада, Великобритания, Rocket Surgery Productions, WAGtv
Описание:
За обычными предметами, окружающими нас в жизни, стоит что-то необычное. Невероятные истории о блестящих решениях проблем, о существовании которых многие из нас даже не знали. Так какие же тайны скрываются за повседневными вещами, которые мы воспринимаем как само собой разумеющееся?
Режиссер: Ричард Стансфилд
Ведущие: Крис Бройлес
В выпуске: 09. (Виски из Теннесси; Приборы ночного видения; Сауны)
Текст читал: Владимир Рыбаченко
Озвучено: Студия Кирилица
Перевод: Профессиональный одноголосый
Продолжительность: 00:22:18
Видеокодек: XVID
Качество видео: HDTVRip
Битрейт видео: ~1356 kb/s
Размер кадра: 672 x 372
Аудиокодек: MP3, 1.0ch.
Битрейт аудио: 87 kb/s

MediaInfo:

Формат : AVI
Формат/Информация : Audio Video Interleave
Размер файла : 233 Мбайт
Продолжительность : 22 м.
Режим общего битрейта : Переменный
Общий поток : 1457 Кбит/сек
Программа кодирования : VirtualDubMod 1.6.0.0 SURROUND (build 2560/release)
Библиотека кодирования : VirtualDubMod build 2560/release
Видео
Идентификатор : 0
Формат : MPEG-4 Visual
Профиль формата : Advanced [email protected]
Параметр BVOP формата : 2
Параметр QPel формата : Нет
Параметр GMC формата : Без точки перехода
Параметр матрицы формата : Default (H.263)
Режим смешивания : Сжатый битовый поток
Идентификатор кодека : XVID
Идентификатор кодека/Подсказка : XviD
Продолжительность : 22 м.
Битрейт : 1356 Кбит/сек
Ширина : 672 пикселя
Высота : 372 пикселя
Соотношение сторон : 16:9
Частота кадров : 25,000 кадров/сек
Цветовое пространство : YUV
Субдискретизация насыщенности : 4:2:0
Битовая глубина : 8 бит
Тип развёртки : Прогрессивная
Метод сжатия : С потерями
Бит/(Пиксели*Кадры) : 0.217
Размер потока : 216 Мбайт (93%)
Библиотека кодирования : XviD 64
Аудио
Идентификатор : 1
Формат : MPEG Audio
Версия формата : Version 1
Профиль формата : Layer 3
Идентификатор кодека : 55
Идентификатор кодека/Подсказка : MP3
Продолжительность : 22 м.
Вид битрейта : Переменный
Битрейт : 87,7 Кбит/сек
Номинальный битрейт : 96,0 Кбит/сек
Каналы : 1 канал
Частота : 48,0 КГц
Метод сжатия : С потерями
Размер потока : 14,0 Мбайт (6%)
Выравнивание : Соединение по промежуткам
Продолжительность промежутка : 24 мс. (0,60 видеокадр)
Время предзагрузки промежутка : 542 мс.
Библиотека кодирования : LAME3.98r
Настройки программы : -m m -V 4 -q 3 -lowpass 20.5 --abr 96
Скриншоты:          
Other forum [Profile] [PM]
Display posts from previous:    
Reply to topic

The time now is: Today 07:53

All times are GMT + 3 Hours



You cannot post new topics in this forum
You cannot reply to topics in this forum
You cannot edit your posts in this forum
You cannot delete your posts in this forum
You cannot vote in polls in this forum
You cannot attach files in this forum
You cannot download files in this forum