Today is a free download without charge Download

Охотники за бриллиантами / Серии: 1-8 из 8 (Александр Котт) [2011, Россия, детектив, 2xDVD9] R5 Original Rus [«Новый Диск»]

Reply to topic
 
Author
Message

voovaz ®

Gender:

Longevity: 9 years

Posts: 87

Торрент-статистика

Post 16-Nov-2011 21:53

[Quote]

-Охотники за бриллиантами -Страна: Россия
Студия: РИМ
Жанр: детектив
Год выпуска: 2011
Дата выхода DVD: 17 ноября 2011, «Новый Диск»
Продолжительность: 8 х 00:53:40
Перевод: Оригинал [Лицензия]
Cубтитры: нет
Оригинальная аудиодорожка: русский-Режиссер: Александр Котт-В ролях: Алексей Серебряков, Евгений Миронов, Михаил Евланов, Петр Федоров, Александр Новин, Мария Аронова, Владимир Ильин, Авангард Леонтьев, Виталий Кищенко, Антон Гришанин-Описание: В ноябре 1980-го происходит ограбление вдовы А. Толстого. Из квартиры выносят антиквариат, но, главное, пропадает необыкновенной красоты брошь Королевская Лилия, изготовленная для Людовика XV. Поскольку вдова Толстого имеет обширные связи и в СССР и за рубежом, дело получает широкий резонанс, к расследованию привлекаются самые серьезные силы МВД, за ходом следствия следит лично министр МВД Щелоков.
Следствие выходит на участницу ограбления — жену французского дипломата, которая собирается покинуть страну. Задержан и её сообщник, известный одесский вор по кличке Бес. Однако бриллиантов при них не обнаружено. Следователь Шахов раскручивает цепочку, надеясь выйти на заказчика — следы уводят всё выше и выше по служебной лестнице, и расследование становится всё опаснее и опаснее для Шахова.
-Бонусы: нет- -Релиз группы: -Качество: 2xDVD9 R5
Формат: DVD-Video
Видео кодек: MPEG2
Аудио кодек: AC3
Видео: PAL 16:9 (720x576(0.425)) MPEG Video, 25,000 кадр/сек, 4409 Кбит/сек
Аудио: Russian (Dolby AC3, 2 ch) 224 Кбит/сек, 48,0 КГц-
-

DVDInfo DVD-1

Title: DVD-1
Size: 7.10 Gb ( 7 447 898 KBytes ) - DVD-9
Enabled regions: 1, 2, 3, 4, 5, 6, 7, 8
VTS_01 :
Play Length: 00:00:15
Video: PAL 4:3 (720x576) VBR
Audio:
Not specified (Dolby AC3, 2 ch)
VTS_02 :
Play Length: 00:00:08
Video: PAL 16:9 (720x576) VBR, Auto Pan&Scan
Audio:
Not specified (Dolby AC3, 2 ch)
VTS_03 :
Play Length: 00:53:37
Video: PAL 16:9 (720x576) VBR, Auto Pan&Scan
Audio:
Not specified (Dolby AC3, 2 ch)
VTS_04 :
Play Length: 00:53:39
Video: PAL 16:9 (720x576) VBR, Auto Pan&Scan
Audio:
Not specified (Dolby AC3, 2 ch)
VTS_05 :
Play Length: 00:53:40
Video: PAL 16:9 (720x576) VBR, Auto Pan&Scan
Audio:
Not specified (Dolby AC3, 2 ch)
VTS_06 :
Play Length: 00:53:39
Video: PAL 16:9 (720x576) VBR, Auto Pan&Scan
Audio:
Not specified (Dolby AC3, 2 ch)
Menu Video:
PAL 16:9 (720x576) VBR
Auto Letterboxed
Menu English Language Unit :
Root Menu
Chapter (PTT) Menu

DVDInfo DVD-2

Title:
Size: 7.10 Gb ( 7 448 262 KBytes ) - DVD-9
Enabled regions: 1, 2, 3, 4, 5, 6, 7, 8
VTS_01 :
Play Length: 00:00:15
Video: PAL 4:3 (720x576) VBR
Audio:
Not specified (Dolby AC3, 2 ch)
VTS_02 :
Play Length: 00:00:08
Video: PAL 16:9 (720x576) VBR, Auto Pan&Scan
Audio:
Not specified (Dolby AC3, 2 ch)
VTS_03 :
Play Length: 00:53:40
Video: PAL 16:9 (720x576) VBR, Auto Pan&Scan
Audio:
Not specified (Dolby AC3, 2 ch)
VTS_04 :
Play Length: 00:53:43
Video: PAL 16:9 (720x576) VBR, Auto Pan&Scan
Audio:
Not specified (Dolby AC3, 2 ch)
VTS_05 :
Play Length: 00:53:39
Video: PAL 16:9 (720x576) VBR, Auto Pan&Scan
Audio:
Not specified (Dolby AC3, 2 ch)
VTS_06 :
Play Length: 00:53:40
Video: PAL 16:9 (720x576) VBR, Auto Pan&Scan
Audio:
Not specified (Dolby AC3, 2 ch)
Menu Video:
PAL 16:9 (720x576) VBR
Auto Letterboxed
Menu English Language Unit :
Root Menu
Chapter (PTT) Menu

MediaInfo

Общее
Полное имя : G:\Новинки 2011\Ohotniki.za.Brilliantami.(1-8.serii.iz.8).2011.2xDVD9\DVD-1\VIDEO_TS\VTS_03_1.VOB
Формат : MPEG-PS
Размер файла : 1024 Мбайт
Продолжительность : 30 м.
Общий поток : 4727 Кбит/сек
Видео
Идентификатор : 224 (0xE0)
Формат : MPEG Video
Версия формата : Version 2
Профиль формата : [email protected]
Параметр BVOP формата : Да
Параметр матрицы формата : По умолчанию
Параметр GOP формата : M=3, N=12
Продолжительность : 30 м.
Вид битрейта : Переменный
Битрейт : 4409 Кбит/сек
Максимальный битрейт : 7500 Кбит/сек
Ширина : 720 пикселей
Высота : 576 пикселей
Соотношение сторон : 16:9
Частота кадров : 25,000 кадров/сек
Стандарт вещания : PAL
Цветовое пространство : YUV
Субдискретизация насыщенности : 4:2:0
Битовая глубина : 8 бит
Тип развёртки : Прогрессивная
Метод сжатия : С потерями
Бит/(Пиксели*Кадры) : 0.425
Размер потока : 955 Мбайт (93%)
Аудио
Идентификатор : 189 (0xBD)-128 (0x80)
Формат : AC-3
Формат/Информация : Audio Coding 3
Расширение режима : CM (complete main)
Режим смешивания : DVD-Video
Продолжительность : 30 м.
Вид битрейта : Постоянный
Битрейт : 224 Кбит/сек
Каналы : 2 канала
Расположение каналов : Front: L R
Частота : 48,0 КГц
Битовая глубина : 16 бит
Метод сжатия : С потерями
Размер потока : 48,5 Мбайт (5%)

Скриншоты меню

   

Скриншоты сериала

               
-
-
-
-
Other forum [Profile] [PM]
Display posts from previous:    
Reply to topic

The time now is: Today 09:24

All times are GMT + 3 Hours



You cannot post new topics in this forum
You cannot reply to topics in this forum
You cannot edit your posts in this forum
You cannot delete your posts in this forum
You cannot vote in polls in this forum
You cannot attach files in this forum
You cannot download files in this forum