Today is a free download without charge Download

Ёжик (Николай Ковальский)[1978.,Комедия, экранизация, короткометражный] SATRip

Reply to topic
 
Author
Message

sashau ®

Gender:

Longevity: 9 years 6 months

Posts: 3497

Торрент-статистика

Post 09-Dec-2013 12:58

[Quote]

Ёжик - Год выпуска: 1978
Жанр: Комедия, экранизация, короткометражный
Описание фильма: По рассказу Григория Горина.
О дошкольнике Славке и его отце - научном работнике, страстном любителе лотереи "Спортлото". Однажды Славка принес домой ёжика, которого он обменял у друга на лотерейный билет папы…
Режиссер: Николай Ковальский
Актеры: Александр Демьяненко, Сергей Еромирцев, Дмитрий Князев, Елена Ставрогина, Юрий Башков, Константин Бутаев, Людмила Лубенская, Д. Манучарян, Светлана Меньшикова, Валерий Смоляков, Алексей Цуканов
Продолжительность: 00:17:47
Качество видео: SATRip

Видеокодек: DivX 5
Битрейт видео: ~3194 Кбит/сек
Размер кадра: 672x504
Аудиокодек: MP3, 1 ch, 96,0 Кбит/сек

MediaInfo:

Общее
Полное имя : E:\Интересно\!!!Конкурс детский\2Этап\!\Ёжик\Ёжик (1978) SATRip.avi
Формат : AVI
Формат/Информация : Audio Video Interleave
Размер файла : 420 Мбайт
Продолжительность : 17 м.
Общий поток : 3300 Кбит/сек
Название фильма : Jozhik
Режиссёр : Lenfil'm
Дата записи : 1978
Программа кодирования : VirtualDubMod 1.5.10.2 (build 2542/release)
Библиотека кодирования : VirtualDubMod build 2542/release
Примечание : TVrip by Turtle / DivX Pro 5.2.1 @ 0,378 bpp / Lame MP3 44,1 kHz Mono @ 96 kbps
Видео
Идентификатор : 0
Формат : MPEG-4 Visual
Параметр BVOP формата : 1
Параметр QPel формата : Нет
Параметр GMC формата : Без точки перехода
Параметр матрицы формата : Default (H.263)
Режим смешивания : Сжатый битовый поток
Идентификатор кодека : DX50
Идентификатор кодека/Подсказка : DivX 5
Продолжительность : 17 м.
Битрейт : 3194 Кбит/сек
Ширина : 672 пикселя
Высота : 504 пикселя
Соотношение сторон : 4:3
Частота кадров : 25,000 кадров/сек
Цветовое пространство : YUV
Субдискретизация насыщенности : 4:2:0
Битовая глубина : 8 бит
Тип развёртки : Прогрессивная
Метод сжатия : С потерями
Бит/(Пиксели*Кадры) : 0.377
Размер потока : 406 Мбайт (97%)
Библиотека кодирования : DivX 5.2.1 (DrDivX 106) (UTC 2004-09-08)
Аудио
Идентификатор : 1
Формат : MPEG Audio
Версия формата : Version 1
Профиль формата : Layer 3
Идентификатор кодека : 55
Идентификатор кодека/Подсказка : MP3
Продолжительность : 17 м.
Вид битрейта : Постоянный
Битрейт : 96,0 Кбит/сек
Каналы : 1 канал
Частота : 44,1 КГц
Метод сжатия : С потерями
Задержка видео : 80 мс.
Размер потока : 12,2 Мбайт (3%)
Выравнивание : Разделение по промежуткам
Продолжительность промежутка : 40 мс. (1,00 видеокадр)
Время предзагрузки промежутка : 500 мс.
Скриншоты:          
         
Other forum [Profile] [PM]
Display posts from previous:    
Reply to topic

The time now is: Today 19:25

All times are GMT + 3 Hours



You cannot post new topics in this forum
You cannot reply to topics in this forum
You cannot edit your posts in this forum
You cannot delete your posts in this forum
You cannot vote in polls in this forum
You cannot attach files in this forum
You cannot download files in this forum