Today is a free download without charge Download

Чужая компания (Сергей Потепалов)[1979.,Драма] SATRip

Reply to topic
 
Author
Message

sashau ®

Gender:

Longevity: 9 years 6 months

Posts: 3497

Торрент-статистика

Post 09-Dec-2013 12:25

[Quote]

Чужая компания - Год выпуска: 1979
Жанр: Драма
Описание фильма: Женя был принят в компанию сверстников, о которой давно мечтал. Однажды на рыбалке он в шутку спрятал надувную лодку. Друзья избили ни в чем не повинного мальчика. Случившееся потрясло Женю - и он решил отказаться от этой дружбы...
Режиссер: Сергей Потепалов
Актеры: Максим Данков, Борис Скачков, Владимир Гостюхин, Валентина Талызина, Валерий Воробьев, Георгий Киянцев, Михаил Глебов, Лидия Петракова
Продолжительность: 01:04:26
Качество видео: SATRip

Видеокодек: DivX 5
Битрейт видео: ~1368 Кбит/сек
Размер кадра: 608x272
Аудиокодек: MP3, 2 ch, 128 Кбит/сек

MediaInfo:

Общее
Полное имя : E:\Интересно\!!!Конкурс детский\2Этап\!\Чужая компания\Чужая компания (1979) SATRip.avi
Формат : AVI
Формат/Информация : Audio Video Interleave
Размер файла : 694 Мбайт
Продолжительность : 1 ч. 4 м.
Общий поток : 1506 Кбит/сек
Программа кодирования : VirtualDubMod 1.5.10.2 (build 2540/release)
Библиотека кодирования : VirtualDubMod build 2540/release
Видео
Идентификатор : 0
Формат : MPEG-4 Visual
Параметр BVOP формата : 1
Параметр QPel формата : Нет
Параметр GMC формата : Без точки перехода
Параметр матрицы формата : Default (H.263)
Режим смешивания : Сжатый битовый поток
Идентификатор кодека : DX50
Идентификатор кодека/Подсказка : DivX 5
Продолжительность : 1 ч. 4 м.
Битрейт : 1368 Кбит/сек
Ширина : 608 пикселей
Высота : 272 пикселя
Соотношение сторон : 5:4
Соотношение сторон в оригинале : 2,25:1
Частота кадров : 25,000 кадров/сек
Цветовое пространство : YUV
Субдискретизация насыщенности : 4:2:0
Битовая глубина : 8 бит
Тип развёртки : Прогрессивная
Метод сжатия : С потерями
Бит/(Пиксели*Кадры) : 0.331
Размер потока : 631 Мбайт (91%)
Библиотека кодирования : DivX 6.0.0 (UTC 2005-06-15)
Аудио
Идентификатор : 1
Формат : MPEG Audio
Версия формата : Version 1
Профиль формата : Layer 3
Режим : Joint stereo
Расширение режима : MS Stereo
Идентификатор кодека : 55
Идентификатор кодека/Подсказка : MP3
Продолжительность : 1 ч. 4 м.
Вид битрейта : Постоянный
Битрейт : 128 Кбит/сек
Каналы : 2 канала
Частота : 48,0 КГц
Метод сжатия : С потерями
Размер потока : 59,0 Мбайт (9%)
Выравнивание : Разделение по промежуткам
Продолжительность промежутка : 40 мс. (1,00 видеокадр)
Время предзагрузки промежутка : 500 мс.
Скриншоты:          
         
Other forum [Profile] [PM]
Display posts from previous:    
Reply to topic

The time now is: Today 19:49

All times are GMT + 3 Hours



You cannot post new topics in this forum
You cannot reply to topics in this forum
You cannot edit your posts in this forum
You cannot delete your posts in this forum
You cannot vote in polls in this forum
You cannot attach files in this forum
You cannot download files in this forum