Today is a free download without charge Download

Пузырьки (Валерий Кремнев)[1975.,Детский, Комедия] VHSRip

Reply to topic
 
Author
Message

sashau ®

Gender:

Longevity: 9 years 6 months

Posts: 3497

Торрент-статистика

Post 09-Dec-2013 11:58

[Quote]

Пузырьки - Год выпуска: 1975
Жанр: Детский, Комедия
Описание фильма:
Сюжет фильма прост. Школьники собирают металлолом, макулатуру, пузырьки. Идет соревнование двух классов. Увлеченные ребята подчас забывают, что соревнование не цель, а средство. Они снимают колпаки с чужого автомобиля, поят ненужными лекарствами бабушку, чтобы набрать больше пузырьков, вмешиваются в дружбу Гарика Еврумяна с девочкой.
Режиссер: Валерий Кремнев
Актеры: Игорь Молодиков, Валерий Марков, Гор Саакян, Елена Безносикова, Саша Балашов, Аркадий Маркин, Алла Антонова, Георгий Вицин, Тамара Носова, Зоя Федорова, Владимир Заманский, Николай Парфенов, Елена Коренева
Продолжительность: 01:08:30
Качество видео: VHSRip

Видеокодек: DivX 5
Битрейт видео: ~1293 kbps
Размер кадра: 688 x 256
Аудиокодек: MP3, 2 ch
Битрейт аудио: 128 kbps

MediaInfo

Пузырьки (1975) VHSRip.avi
Format : AVI
Format/Info : Audio Video Interleave
File size : 701 MiB
Duration : 1h 8mn
Overall bit rate : 1 431 Kbps
Writing application : FairUse Wizard - http://fairusewizard.com
Writing library : The best and REALLY easy backup tool
Video
ID : 0
Format : MPEG-4 Visual
Format settings, BVOP : 1
Format settings, QPel : No
Format settings, GMC : No warppoints
Format settings, Matrix : Default (H.263)
Muxing mode : Packed bitstream
Codec ID : DX50
Codec ID/Hint : DivX 5
Duration : 1h 8mn
Bit rate : 1 293 Kbps
Width : 688 pixels
Height : 256 pixels
Display aspect ratio : 2.688
Frame rate : 25.000 fps
Color space : YUV
Chroma subsampling : 4:2:0
Bit depth : 8 bits
Scan type : Progressive
Compression mode : Lossy
Bits/(Pixel*Frame) : 0.294
Stream size : 634 MiB (90%)
Writing library : DivX 6.8.5 (UTC 2009-08-20)
Audio
ID : 1
Format : MPEG Audio
Format version : Version 1
Format profile : Layer 3
Mode : Joint stereo
Mode extension : MS Stereo
Codec ID : 55
Codec ID/Hint : MP3
Duration : 1h 8mn
Bit rate mode : Constant
Bit rate : 128 Kbps
Channel count : 2 channels
Sampling rate : 48.0 KHz
Compression mode : Lossy
Stream size : 62.7 MiB (9%)
Alignment : Aligned on interleaves
Interleave, duration : 40 ms (1.00 video frame)
Interleave, preload duration : 504 ms
Writing library : LAME3.97
Скриншоты:        
Other forum [Profile] [PM]
Display posts from previous:    
Reply to topic

The time now is: Today 07:47

All times are GMT + 3 Hours



You cannot post new topics in this forum
You cannot reply to topics in this forum
You cannot edit your posts in this forum
You cannot delete your posts in this forum
You cannot vote in polls in this forum
You cannot attach files in this forum
You cannot download files in this forum