Today is a free download without charge Download

У Лукоморья (Феликс Глямшин)[1969.,короткометражный, экранизация] SATRip

Reply to topic
 
Author
Message

sashau ®

Gender:

Longevity: 9 years 6 months

Posts: 3497

Торрент-статистика

Post 09-Dec-2013 11:38

[Quote]

У Лукоморья - Год выпуска: 1969
Жанр: короткометражный, экранизация
Описание фильма: По мотивам рассказа Р. Кутуя "С закрытыми глазами".После смерти отца, капитана дальнего плавания, Илька ещё больше сошёлся с мамой и старшей сестрой. Всё чаще он советуется с ними и читает свои стихи, смешно закрывая при этом глаза. Зоя, влюблённая в кусанта мореходного училища Юру Бориковского, дала ему посмотреть, с согласия брата, заветную тетрадь со стихами. Но уже на следующий день, Илька вынужден забрать её обратно, у оказавшегося подлецом Юры.
Режиссер: Феликс Глямшин
Актеры: Витя Кармалитов, Лена Беспалова, Софья Павлова, Игорь Старыгин, Л. Коробейников, Валерий Лысенков, К. Финогенов
Продолжительность: 00:29:06
Качество видео: SATRip

Видеокодек: XviD
Битрейт видео: ~1655 Кбит/сек
Размер кадра: 688x512
Аудиокодек: MP3, 2 ch, 128 Кбит/сек

MediaInfo:

Общее
Полное имя : E:\Интересно\!!!Конкурс детский\2Этап\!\У Лукоморья\TV\У Лукоморья (1969) SATRip.avi
Формат : AVI
Формат/Информация : Audio Video Interleave
Размер файла : 373 Мбайт
Продолжительность : 29 м.
Общий поток : 1793 Кбит/сек
Программа кодирования : VirtualDubModRus 1.5.10.2 (build 2542/release)
Библиотека кодирования : VirtualDubMod build 2542/release
Видео
Идентификатор : 0
Формат : MPEG-4 Visual
Профиль формата : Advanced [email protected]
Параметр BVOP формата : 2
Параметр QPel формата : Нет
Параметр GMC формата : Без точки перехода
Параметр матрицы формата : Default (MPEG)
Режим смешивания : Сжатый битовый поток
Идентификатор кодека : XVID
Идентификатор кодека/Подсказка : XviD
Продолжительность : 29 м.
Битрейт : 1655 Кбит/сек
Ширина : 688 пикселей
Высота : 512 пикселей
Соотношение сторон : 4:3
Частота кадров : 25,000 кадров/сек
Цветовое пространство : YUV
Субдискретизация насыщенности : 4:2:0
Битовая глубина : 8 бит
Тип развёртки : Прогрессивная
Метод сжатия : С потерями
Бит/(Пиксели*Кадры) : 0.188
Размер потока : 345 Мбайт (92%)
Библиотека кодирования : XviD 1.2.1 (UTC 2008-12-04)
Аудио
Идентификатор : 1
Формат : MPEG Audio
Версия формата : Version 1
Профиль формата : Layer 3
Идентификатор кодека : 55
Идентификатор кодека/Подсказка : MP3
Продолжительность : 29 м.
Вид битрейта : Постоянный
Битрейт : 128 Кбит/сек
Каналы : 2 канала
Частота : 48,0 КГц
Метод сжатия : С потерями
Размер потока : 26,7 Мбайт (7%)
Выравнивание : Соединение по промежуткам
Продолжительность промежутка : 40 мс. (1,00 видеокадр)
Время предзагрузки промежутка : 504 мс.
Библиотека кодирования : LAME3.97
Настройки программы : -m s -V 4 -q 1 -b 128
Скриншоты:          
       
Other forum [Profile] [PM]
Display posts from previous:    
Reply to topic

The time now is: Today 04:36

All times are GMT + 3 Hours



You cannot post new topics in this forum
You cannot reply to topics in this forum
You cannot edit your posts in this forum
You cannot delete your posts in this forum
You cannot vote in polls in this forum
You cannot attach files in this forum
You cannot download files in this forum