Today is a free download without charge Download

У моря, где мы играли ( Владимир Македонский)[1967.,Детский, короткометражный] SATRip

Reply to topic
 
Author
Message

sashau ®

Gender:

Longevity: 9 years 6 months

Posts: 3497

Торрент-статистика

Post 09-Dec-2013 11:32

[Quote]

У моря, где мы играли - Год выпуска: 1967
Жанр: Детский, короткометражный
Описание фильма: Фильм о том, что и человек с физическими недостатками должен жить полной жизнью, быть мужественным и честным.
На волейбольной площадке у моря пионеры играли в волейбол. Капитан проигравшей команды во всем обвинил судью-молодого паренька, который болел за эту команду, но не хотел поступить нечестно, подсудив ей. А лагерные шефы в качестве поощрения подарили судье бутсы, не зная о том, что у паренька, так горячо и несправедливо судившего матч, нет ног.
Режиссер: Владимир Македонский
Актеры: Игорь Пушаков, Саша Кавалеров, Марина Ярычевская, Азер Курбанов
Продолжительность: 00:25:05
Качество видео: SATRip

Видеокодек: XVID
Битрейт видео: ~1849 Кбит/сек
Размер кадра: 640x480
Аудиокодек: MP3, 2 ch, 128 Кбит/сек

MediaInfo:

Общее
Полное имя : E:\Интересно\!!!Конкурс детский\2Этап\!\У моря, где мы играли\У моря, где мы играли (1967) SATRip.avi
Формат : AVI
Формат/Информация : Audio Video Interleave
Размер файла : 356 Мбайт
Продолжительность : 25 м.
Общий поток : 1986 Кбит/сек
Режиссёр : SATrip by Animat (fenixclub.com)
Программа кодирования : VirtualDubMod 1.5.10.2 (build 2540/release)
Библиотека кодирования : VirtualDubMod build 2540/release
Видео
Идентификатор : 0
Формат : MPEG-4 Visual
Профиль формата : Advanced [email protected]
Параметр BVOP формата : 2
Параметр QPel формата : Нет
Параметр GMC формата : Без точки перехода
Параметр матрицы формата : Default (MPEG)
Режим смешивания : Сжатый битовый поток
Идентификатор кодека : XVID
Идентификатор кодека/Подсказка : XviD
Продолжительность : 25 м.
Битрейт : 1849 Кбит/сек
Ширина : 640 пикселей
Высота : 480 пикселей
Соотношение сторон : 4:3
Частота кадров : 25,000 кадров/сек
Цветовое пространство : YUV
Субдискретизация насыщенности : 4:2:0
Битовая глубина : 8 бит
Тип развёртки : Прогрессивная
Метод сжатия : С потерями
Бит/(Пиксели*Кадры) : 0.241
Размер потока : 332 Мбайт (93%)
Библиотека кодирования : XviD 1.1.2 (UTC 2006-11-01)
Аудио
Идентификатор : 1
Формат : MPEG Audio
Версия формата : Version 1
Профиль формата : Layer 3
Режим : Joint stereo
Расширение режима : MS Stereo
Идентификатор кодека : 55
Идентификатор кодека/Подсказка : MP3
Продолжительность : 25 м.
Вид битрейта : Постоянный
Битрейт : 128 Кбит/сек
Каналы : 2 канала
Частота : 48,0 КГц
Метод сжатия : С потерями
Размер потока : 23,0 Мбайт (6%)
Выравнивание : Соединение по промежуткам
Продолжительность промежутка : 40 мс. (1,00 видеокадр)
Время предзагрузки промежутка : 504 мс.
Скриншоты:          
         
Other forum [Profile] [PM]
Display posts from previous:    
Reply to topic

The time now is: Today 12:06

All times are GMT + 3 Hours



You cannot post new topics in this forum
You cannot reply to topics in this forum
You cannot edit your posts in this forum
You cannot delete your posts in this forum
You cannot vote in polls in this forum
You cannot attach files in this forum
You cannot download files in this forum