Today is a free download without charge Download

Гоги Ратиани (Котэ Марджанишвили)[1927.,Короткометражный, Детский] TS

Reply to topic
 
Author
Message

sashau ®

Gender:

Longevity: 9 years 6 months

Posts: 3497

Торрент-статистика

Post 09-Dec-2013 11:29

[Quote]

Гоги Ратиани - Год выпуска: 1927
Жанр: Короткометражный, Детский
Описание фильма:
О судьбе двух грузинских школьников, Гоги и Кико, которых объединяет любовь к рисованию, мечта поступить в художественное училище и серьезно заняться любимым делом. Действие фильма начинается накануне Октябрьской революции.
Режиссер: Котэ Марджанишвили
Актеры: Гоги Ратиани, Сандро Дадешкелиани, Ирина Донаури, Б. Гиоргобиани, Александр Такайшвили, Александр (Шура) Джагарбеков, Заал Теришвили, Нуца (Нина) Чхеидзе, Валериан (Валико) Гуниа, Сергей Амаглобели
Продолжительность: 00:43:16
Качество видео: TS

Видеокодек: Xvid
Битрейт видео: ~1195 Кбит/сек
Размер кадра: 640x480
Аудиокодек: MP3, 2 сh
Битрейт аудио: 128 Кбит/сек
Дополнение: Фильм немой без звука

MediaInfo:

Общее
Полное имя : E:\Интересно\!!!Конкурс детский\2Этап\Гоги Ратиани\Гоги Ратиани (1927) TS.avi
Формат : AVI
Формат/Информация : Audio Video Interleave
Размер файла : 413 Мбайт
Продолжительность : 43 м.
Общий поток : 1336 Кбит/сек
Видео
Идентификатор : 0
Формат : MPEG-4 Visual
Профиль формата : [email protected]
Параметр BVOP формата : Нет
Параметр QPel формата : Нет
Параметр GMC формата : Без точки перехода
Параметр матрицы формата : Default (H.263)
Идентификатор кодека : XVID
Идентификатор кодека/Подсказка : XviD
Продолжительность : 43 м.
Битрейт : 1195 Кбит/сек
Ширина : 640 пикселей
Высота : 480 пикселей
Соотношение сторон : 4:3
Частота кадров : 25,000 кадров/сек
Цветовое пространство : YUV
Субдискретизация насыщенности : 4:2:0
Битовая глубина : 8 бит
Тип развёртки : Прогрессивная
Метод сжатия : С потерями
Бит/(Пиксели*Кадры) : 0.156
Размер потока : 370 Мбайт (89%)
Библиотека кодирования : Magic0432
Аудио
Идентификатор : 1
Формат : MPEG Audio
Версия формата : Version 1
Профиль формата : Layer 3
Режим : Joint stereo
Расширение режима : MS Stereo
Идентификатор кодека : 55
Идентификатор кодека/Подсказка : MP3
Продолжительность : 43 м.
Вид битрейта : Постоянный
Битрейт : 128 Кбит/сек
Каналы : 2 канала
Частота : 44,1 КГц
Метод сжатия : С потерями
Размер потока : 39,6 Мбайт (10%)
Выравнивание : Соединение по промежуткам
Продолжительность промежутка : 26 мс. (0,65 видеокадр)
Библиотека кодирования : LAME3.97
Скриншоты:
         
         
Other forum [Profile] [PM]
Display posts from previous:    
Reply to topic

The time now is: Today 12:35

All times are GMT + 3 Hours



You cannot post new topics in this forum
You cannot reply to topics in this forum
You cannot edit your posts in this forum
You cannot delete your posts in this forum
You cannot vote in polls in this forum
You cannot attach files in this forum
You cannot download files in this forum