Today is a free download without charge Download

Дикие лебеди (Хелле Карис)[1987,Сказка, семейный] DVDRip

Reply to topic
 
Author
Message

sashau ®

Gender:

Longevity: 9 years 6 months

Posts: 3497

Торрент-статистика

Post 09-Dec-2013 11:23

[Quote]

Дикие лебеди - Год выпуска: 1987
Производство: СССР, Эстония Таллиннфильм
Перевод: Профессиональный (полное дублирование)
Жанр: Сказка, семейный
Описание фильма: Дочь короля Элиза отправляется на поиски своих одиннадцати братьев. Злая мачеха-ведьма превратила их в диких лебедей и заставила скитаться по свету. Добрые люди, скалы и ветер показывали девушке дорогу. Чтобы снять злые чары, Элиза должна сплести 11 рубашек из крапивы и набросить их на лебедей…
Режиссер: Хелле Карис
Актеры: Катри Хорма, Юрис Жагарс, Андрей Жагарс, Инес Ару, Гуннар Килгас, Лийна Орлова, Свен Раа, Хеленд Пеэн, Леви Мягила, Данэл Мягила, Петер Мурдмаа, Женя Школьников, Юрмо Ээспере, Каспар Янцис, Хендрик Лепп, Кристян Круусемент, Танел Урб, Харди Компа
Продолжительность: 01:22:01
Качество видео: DVDRip

Видеокодек: XviD
Битрейт видео: ~1878 Кбит/сек
Размер кадра: 704x536
Аудиокодек: AC3, 6 ch, 448 Кбит/сек

MediaInfo:

Общее
Полное имя : E:\Интересно\!!!Конкурс детский\2Этап\!\Дикие лебеди\Дикие лебеди (1987) DVDRip.avi
Формат : AVI
Формат/Информация : Audio Video Interleave
Размер файла : 1,34 Гбайт
Продолжительность : 1 ч. 22 м.
Общий поток : 2335 Кбит/сек
Программа кодирования : VirtualDubMod 1.5.10.2 (build 2540/release)
Библиотека кодирования : VirtualDubMod build 2540/release
Видео
Идентификатор : 0
Формат : MPEG-4 Visual
Профиль формата : Advanced [email protected]
Параметр BVOP формата : 3
Параметр QPel формата : Нет
Параметр GMC формата : Без точки перехода
Параметр матрицы формата : Default (H.263)
Идентификатор кодека : XVID
Идентификатор кодека/Подсказка : XviD
Продолжительность : 1 ч. 22 м.
Битрейт : 1878 Кбит/сек
Ширина : 704 пикселя
Высота : 536 пикселей
Соотношение сторон : 4:3
Частота кадров : 25,000 кадров/сек
Цветовое пространство : YUV
Субдискретизация насыщенности : 4:2:0
Битовая глубина : 8 бит
Тип развёртки : Прогрессивная
Метод сжатия : С потерями
Бит/(Пиксели*Кадры) : 0.199
Размер потока : 1,08 Гбайт (80%)
Библиотека кодирования : XviD 1.2.1 (UTC 2008-12-04)
Аудио
Идентификатор : 1
Формат : AC-3
Формат/Информация : Audio Coding 3
Расширение режима : CM (complete main)
Параметр Endianness формата : Big
Идентификатор кодека : 2000
Продолжительность : 1 ч. 22 м.
Вид битрейта : Постоянный
Битрейт : 448 Кбит/сек
Каналы : 6 каналов
Расположение каналов : Front: L C R, Side: L R, LFE
Частота : 48,0 КГц
Битовая глубина : 16 бит
Метод сжатия : С потерями
Размер потока : 263 Мбайт (19%)
Выравнивание : Соединение по промежуткам
Продолжительность промежутка : 40 мс. (1,00 видеокадр)
Время предзагрузки промежутка : 512 мс.
Скриншоты:          
         
Other forum [Profile] [PM]
Display posts from previous:    
Reply to topic

The time now is: Today 18:53

All times are GMT + 3 Hours



You cannot post new topics in this forum
You cannot reply to topics in this forum
You cannot edit your posts in this forum
You cannot delete your posts in this forum
You cannot vote in polls in this forum
You cannot attach files in this forum
You cannot download files in this forum