Today is a free download without charge Download

Шесть медведей и клоун Цибулька / Sest medvedu s Cibulkou (1972) DVDRip

Reply to topic
 
Author
Message

sashau ®

Gender:

Longevity: 9 years 4 months

Posts: 3497

Торрент-статистика

Post 09-Dec-2013 11:10

[Quote]

Шесть медведей и клоун Цибулька / Sest medvedu s Cibulkou
- Год выпуска: 1972
Производство: Чехословакия
Перевод: Дублированный
Жанр: Комедия, Приключенчения, детский
Описание фильма: Цирковой номер клоуна Цибульки с медведями очень любили дети. А директор цирка недолюбливал клоуна и обменял медведей на дрессированных поросят из другого цирка. Школьники Гонза, Марцелла и Ярда, желая помочь оставшемуся без работы Цибульке, сообщают ему, что у них в школе требуется повариха. Поначалу директор школы доволен был новой поварихой Цибульковой. Но в день прихода в школу инспектора сбежавшие медведи разыскали Цибульку и... в школе стали происходить невероятные чудеса… Все закончилось благополучно: клоун Цибулька и шесть медведей снова появились на арене городского цирка.
Режиссер: Олджих Липский
Актеры: Л.Липский, И.Совак, Я.Либичек, М.Копецкий, Ф.Филиповский
Продолжительность: 01:13:30
Качество видео: DVDRip

Видеокодек: XviD
Битрейт видео: ~1061 Кбит/сек
Размер кадра: 512x304
Аудиокодек: MP3, 2 ch, 128 Кбит/сек

MediaInfo:

Общее
Полное имя : E:\Интересно\!!!Конкурс детский\2Этап\!\Шесть медведей и клоун Цибулька\Шесть медведей и клоун Цибулька (1972) DVDRip.avi
Формат : AVI
Формат/Информация : Audio Video Interleave
Размер файла : 630 Мбайт
Продолжительность : 1 ч. 13 м.
Общий поток : 1199 Кбит/сек
Программа кодирования : VirtualDubMod 1.5.10.2 (build 2540/release)
Библиотека кодирования : VirtualDubMod build 2540/release
Видео
Идентификатор : 0
Формат : MPEG-4 Visual
Профиль формата : Advanced [email protected]
Параметр BVOP формата : 2
Параметр QPel формата : Да
Параметр GMC формата : Без точки перехода
Параметр матрицы формата : Default (H.263)
Идентификатор кодека : XVID
Идентификатор кодека/Подсказка : XviD
Продолжительность : 1 ч. 13 м.
Битрейт : 1061 Кбит/сек
Ширина : 512 пикселей
Высота : 304 пикселя
Соотношение сторон : 1,684
Частота кадров : 25,000 кадров/сек
Цветовое пространство : YUV
Субдискретизация насыщенности : 4:2:0
Битовая глубина : 8 бит
Тип развёртки : Прогрессивная
Метод сжатия : С потерями
Бит/(Пиксели*Кадры) : 0.273
Размер потока : 558 Мбайт (89%)
Библиотека кодирования : XviD 1.0.3 (UTC 2004-12-20)
Аудио
Идентификатор : 1
Формат : MPEG Audio
Версия формата : Version 1
Профиль формата : Layer 3
Идентификатор кодека : 55
Идентификатор кодека/Подсказка : MP3
Продолжительность : 1 ч. 13 м.
Вид битрейта : Постоянный
Битрейт : 128 Кбит/сек
Каналы : 2 канала
Частота : 44,1 КГц
Метод сжатия : С потерями
Размер потока : 67,2 Мбайт (11%)
Выравнивание : Разделение по промежуткам
Продолжительность промежутка : 40 мс. (1,00 видеокадр)
Время предзагрузки промежутка : 500 мс.
Скриншоты:          
         
Other forum [Profile] [PM]
Display posts from previous:    
Reply to topic

The time now is: Today 21:17

All times are GMT + 3 Hours



You cannot post new topics in this forum
You cannot reply to topics in this forum
You cannot edit your posts in this forum
You cannot delete your posts in this forum
You cannot vote in polls in this forum
You cannot attach files in this forum
You cannot download files in this forum