Today is a free download without charge Download

Лес, в который ты никогда не войдешь ( Борис Конунов)[1973.,Киноповесть] TVRip

Reply to topic
 
Author
Message

sashau ®

Gender:

Longevity: 9 years 6 months

Posts: 3497

Торрент-статистика

Post 08-Dec-2013 18:17

[Quote]

Лес, в который ты никогда не войдешь - Год выпуска: 1973
Жанр: Киноповесть
Описание фильма:
Десятиклассники одной из городских школ приехали на двухнедельную практику в соседний леспромхоз. Вначале ребята чувствовали себя туристами. Но участие в посадке леса под руководством лесничего Юрия - настоящего энтузиаста своего дела, пробудило в них чувство любви к родной природе.
Режиссер: Борис Конунов
Актеры: Изабелла Чирина, Альгис Арлаускас, Виктор Жиганов, Юрий Каморный, Раиса Куркина, Светлана Орлова, Юрий Кузьменков, Сергей Харченко, Владимир Шакало, Анна Кожевникова, Евгения Воробьева, Ион Аракелу
Продолжительность: 01:07:30
Качество видео: TVRip

Видеокодек: DivX 5
Битрейт видео: ~1700 Кбит/сек
Размер кадра: 656x496
Аудиокодек: MP3, 2 ch
Битрейт аудио: 128 Кбит/сек

MediaInfo:

Общее
Полное имя : E:\Интересно\!!!Конкурс детский\2Этап\!\Лес, в который ты никогда не войдёшь\Лес, в который ты никогда не войдешь (1973) TVRip.avi
Формат : DivX
Формат/Информация : Hack of AVI
Размер файла : 887 Мбайт
Продолжительность : 1 ч. 7 м.
Общий поток : 1838 Кбит/сек
Видео
Идентификатор : 0
Формат : MPEG-4 Visual
Параметр BVOP формата : 1
Параметр QPel формата : Нет
Параметр GMC формата : Без точки перехода
Параметр матрицы формата : Default (H.263)
Режим смешивания : Сжатый битовый поток
Идентификатор кодека : DX50
Идентификатор кодека/Подсказка : DivX 5
Продолжительность : 1 ч. 7 м.
Битрейт : 1700 Кбит/сек
Ширина : 656 пикселей
Высота : 496 пикселей
Соотношение сторон : 4:3
Частота кадров : 25,000 кадров/сек
Цветовое пространство : YUV
Субдискретизация насыщенности : 4:2:0
Битовая глубина : 8 бит
Тип развёртки : Прогрессивная
Метод сжатия : С потерями
Бит/(Пиксели*Кадры) : 0.209
Размер потока : 821 Мбайт (93%)
Заголовок : Video
Библиотека кодирования : DivX 6.1.1 (UTC 2006-02-01)
Аудио
Идентификатор : 1
Формат : MPEG Audio
Версия формата : Version 1
Профиль формата : Layer 3
Режим : Dual mono
Идентификатор кодека : 55
Идентификатор кодека/Подсказка : MP3
Продолжительность : 1 ч. 7 м.
Вид битрейта : Постоянный
Битрейт : 128 Кбит/сек
Каналы : 2 канала
Частота : 44,1 КГц
Метод сжатия : С потерями
Размер потока : 61,8 Мбайт (7%)
Выравнивание : Разделение по промежуткам
Продолжительность промежутка : 40 мс. (1,00 видеокадр)
Время предзагрузки промежутка : 500 мс.
Заголовок : Audio
Скриншоты:
         
Other forum [Profile] [PM]
Display posts from previous:    
Reply to topic

The time now is: Today 16:18

All times are GMT + 3 Hours



You cannot post new topics in this forum
You cannot reply to topics in this forum
You cannot edit your posts in this forum
You cannot delete your posts in this forum
You cannot vote in polls in this forum
You cannot attach files in this forum
You cannot download files in this forum