Today is a free download without charge Download

Как стать мужчиной (Ирина Тарковская, Хасан Хажкасимов)[1970.,Семейный, Детский] TVRip

Reply to topic
 
Author
Message

sashau ®

Gender:

Longevity: 9 years 6 months

Posts: 3497

Торрент-статистика

Post 08-Dec-2013 18:07

[Quote]

Как стать мужчиной - Год выпуска: 1970
Жанр: Семейный, Детский
Описание фильма:
Новелла первая — «Женя». История о взаимоотношениях ребят из детского сада, и о том, как маленький Женя был несправедливо наказан. Новелла вторая — «Буба». Из грузинского села сбежал один из участников местного самодеятельного оркестра. Заменить его выпадает одиннадцатилетнему Бубе.
Режиссер: Ирина Тарковская, Хасан Хажкасимов
Актеры: Женя Байер, Маюн Хавпачев, Люта Алоев, Настя Анфиногенова, Т. Аталиков, Зозо Бакрадзе, Лена Боравлева, Екатерина Васильева, Ирина Гольцова, Георгий Кавтарадзе, Егор Коган, Павел Коган, Татьяна Ларина, Абессалом Лория, Наташа Мутовкина, Сережа Сканави, Али Тухужев, Баадур Цуладзе, Оксана Шакун, Азат Шеренц, Максим Шур
Продолжительность: 01:05:35
Качество видео: TVRip

Видеокодек: DivX 5
Битрейт видео: ~1369 Кбит/сек
Размер кадра: 512x320
Аудиокодек: MP3, 2 ch
Битрейт аудио: 128 Кбит/сек

MediaInfo:

Общее
Полное имя : E:\Интересно\!!!Конкурс детский\2Этап\!\Как стать мужчиной\Как стать мужчиной (1970) TVRip.avi
Формат : AVI
Формат/Информация : Audio Video Interleave
Размер файла : 707 Мбайт
Продолжительность : 1 ч. 5 м.
Общий поток : 1506 Кбит/сек
Программа кодирования : VirtualDubMod 1.5.10.2 (build 2540/release)
Библиотека кодирования : VirtualDub build 23486/release
Видео
Идентификатор : 0
Формат : MPEG-4 Visual
Параметр BVOP формата : 1
Параметр QPel формата : Нет
Параметр GMC формата : Без точки перехода
Параметр матрицы формата : Default (H.263)
Режим смешивания : Сжатый битовый поток
Идентификатор кодека : DX50
Идентификатор кодека/Подсказка : DivX 5
Продолжительность : 1 ч. 5 м.
Битрейт : 1369 Кбит/сек
Ширина : 512 пикселей
Высота : 320 пикселей
Соотношение сторон : 16:10
Частота кадров : 25,000 кадров/сек
Цветовое пространство : YUV
Субдискретизация насыщенности : 4:2:0
Битовая глубина : 8 бит
Тип развёртки : Прогрессивная
Метод сжатия : С потерями
Бит/(Пиксели*Кадры) : 0.334
Размер потока : 642 Мбайт (91%)
Библиотека кодирования : DivX 6.5.1 (UTC 2007-03)
Аудио
Идентификатор : 1
Формат : MPEG Audio
Версия формата : Version 1
Профиль формата : Layer 3
Режим : Joint stereo
Расширение режима : MS Stereo
Идентификатор кодека : 55
Идентификатор кодека/Подсказка : MP3
Продолжительность : 1 ч. 5 м.
Вид битрейта : Постоянный
Битрейт : 128 Кбит/сек
Каналы : 2 канала
Частота : 48,0 КГц
Метод сжатия : С потерями
Размер потока : 60,0 Мбайт (8%)
Выравнивание : Разделение по промежуткам
Продолжительность промежутка : 40 мс. (1,00 видеокадр)
Время предзагрузки промежутка : 500 мс.
Скриншоты:
         
Other forum [Profile] [PM]
Display posts from previous:    
Reply to topic

The time now is: Today 20:09

All times are GMT + 3 Hours



You cannot post new topics in this forum
You cannot reply to topics in this forum
You cannot edit your posts in this forum
You cannot delete your posts in this forum
You cannot vote in polls in this forum
You cannot attach files in this forum
You cannot download files in this forum